Вы используете незарегистрированную версию компонента "Вкладки"!

Поиск

(Post Bop) Adam Makowicz Trio — My Favorite Things – Music Of Richard Rodgers (1993) — 1994, FLAC (image+.cue), lossless

Треклист:
Adam Makowicz Trio — My Favorite Things – Music Of Richard Rodgers (1993)
Жанр: Post Bop
Год издания диска: 1994
Лейбл: Concord
Номер по каталогу: CCD-4631
Аудиокодек: FLAC (*.flac)
Тип рипа: image+.cue
Битрейт аудио: lossless
Продолжительность: 63:00
Риппер: barin99
Сканы есть
Треклист:
01. Where Or When (5:04)
02. I Didn't Know What Time It Was (5:26)
03. The Surrey With The Fringe On Top (5:20)
04. My Favorite Things (6:42)
05. The Lady Is A Tramp (6:17)
06. This Can't Be Love (4:00)
07. My Funny Valentine (4:29)
08. My Romance (6:33)
09. Lover (6:30)
10. It Might As Well Be Spring (7:37)
11. Have You Met Miss Jones (5:02)
Personnel:
Adam Makowicz - p
George Mraz - b
Alan Dawson - d
Rec.: Penny Lane Studios, NYC, NY, September 7 & 8, 1993.
 
 
Лог создания рипа
Exact Audio Copy V1.0 beta 1 from 15. November 2010
EAC extraction logfile from 10. May 2011, 20:28
Adam Makowicz Trio / My Favorite Things-Music of Richard Rodgers
Used drive : TSSTcorpDVD+-RW TS-L532B Adapter: 1 ID: 0
Read mode : Secure
Utilize accurate stream : Yes
Defeat audio cache : Yes
Make use of C2 pointers : No
Read offset correction : 704
Overread into Lead-In and Lead-Out : No
Fill up missing offset samples with silence : Yes
Delete leading and trailing silent blocks : No
Null samples used in CRC calculations : Yes
Used interface : Native Win32 interface for Win NT & 2000
Used output format : Internal WAV Routines
Sample format : 44.100 Hz; 16 Bit; Stereo
TOC of the extracted CD
Track | Start | Length | Start sector | End sector
---------------------------------------------------------
1 | 0:00.00 | 5:03.70 | 0 | 22794
2 | 5:03.70 | 5:26.17 | 22795 | 47261
3 | 10:30.12 | 5:19.55 | 47262 | 71241
4 | 15:49.67 | 6:42.03 | 71242 | 101394
5 | 22:31.70 | 6:16.70 | 101395 | 129664
6 | 28:48.65 | 4:00.17 | 129665 | 147681
7 | 32:49.07 | 4:29.00 | 147682 | 167856
8 | 37:18.07 | 6:33.03 | 167857 | 197334
9 | 43:51.10 | 6:30.32 | 197335 | 226616
10 | 50:21.42 | 7:36.50 | 226617 | 260866
11 | 57:58.17 | 5:02.08 | 260867 | 283524
Range status and errors
Selected range
Filename C:\Documents and Settings\VB\My Documents\BARIN99\Adam Makowicz Trio - My Favorite Things-Music of Richard Rodgers\Adam Makowicz Trio - My Favorite Things-Music of Richard Rodgers.wav
Peak level 100.0 %
Extraction speed 0.2 X
Range quality 100.0 %
Copy CRC 356B5332
Copy OK
No errors occurred
AccurateRip summary
Track 1 accurately ripped (confidence 1) [A8B1A071]
Track 2 accurately ripped (confidence 1) [B0D21FDB]
Track 3 accurately ripped (confidence 1) [6130CA07]
Track 4 accurately ripped (confidence 1) [69F39751]
Track 5 accurately ripped (confidence 1) [7B52FD16]
Track 6 accurately ripped (confidence 1) [88FA4975]
Track 7 accurately ripped (confidence 1) [E667A02B]
Track 8 accurately ripped (confidence 1) [794FB4EE]
Track 9 accurately ripped (confidence 1) [F9FCA5DE]
Track 10 accurately ripped (confidence 1) [9A8732B8]
Track 11 accurately ripped (confidence 1) [0010A521]
All tracks accurately ripped
End of status report
 
Содержание индексной карты (.CUE)
REM GENRE Jazz
REM DATE 1993
REM DISCID 7A0EC40B
REM COMMENT "ExactAudioCopy v1.0b1"
PERFORMER "Adam Makowicz Trio"
TITLE "My Favorite Things - Music of Richard Rodgers"
FILE "Adam Makowicz - Music Of Richard Rodgers.flac" WAVE
TRACK 01 AUDIO
TITLE "Where Or When"
PERFORMER "Adam Makowicz Trio"
INDEX 01 00:00:00
TRACK 02 AUDIO
TITLE "I Didn't Know What Time It Was"
PERFORMER "Adam Makowicz Trio"
INDEX 00 05:00:25
INDEX 01 05:03:70
TRACK 03 AUDIO
TITLE "The Surrey With The Fringe On Top"
PERFORMER "Adam Makowicz Trio"
INDEX 00 10:27:35
INDEX 01 10:30:12
TRACK 04 AUDIO
TITLE "My Favorite Things"
PERFORMER "Adam Makowicz Trio"
INDEX 00 15:46:57
INDEX 01 15:49:67
TRACK 05 AUDIO
TITLE "The Lady Is A Tramp"
PERFORMER "Adam Makowicz Trio"
INDEX 00 22:28:57
INDEX 01 22:31:70
TRACK 06 AUDIO
TITLE "This Can't Be Love"
PERFORMER "Adam Makowicz Trio"
INDEX 00 28:45:67
INDEX 01 28:48:65
TRACK 07 AUDIO
TITLE "My Funny Valentine"
PERFORMER "Adam Makowicz Trio"
INDEX 00 32:47:05
INDEX 01 32:49:07
TRACK 08 AUDIO
TITLE "My Romance"
PERFORMER "Adam Makowicz Trio"
INDEX 00 37:14:52
INDEX 01 37:18:07
TRACK 09 AUDIO
TITLE "Lover"
PERFORMER "Adam Makowicz Trio"
INDEX 00 43:48:07
INDEX 01 43:51:10
TRACK 10 AUDIO
TITLE "It Might As Well Be Spring"
PERFORMER "Adam Makowicz Trio"
INDEX 00 50:18:17
INDEX 01 50:21:42
TRACK 11 AUDIO
TITLE "Have You Met Miss Jones"
PERFORMER "Adam Makowicz Trio"
INDEX 00 57:55:17
INDEX 01 57:58:17
Any questions - support@pro-jazz.com.
Есть вопросы - support@pro-jazz.com
06:22
240
Нет комментариев. Ваш будет первым!