Поиск

(Pop) [CD] Terence Trent D’Arby - Introducing the Hardline According to Terence Trent D'Arby (Japan 1st Press) - 1987, FLAC (image+.cue), lossless

(Pop) [CD] Terence Trent D’Arby - Introducing the Hardline According to Terence Trent D'Arby (Japan 1st Press) - 1987, FLAC (image+.cue), lossless
Треклист:
Terence Trent D’Arby / Introducing the Hardline According to Terence Trent D'Arby (Japan 1st Press)
Жанр: Funk, Soul, R&B
Носитель: CD
Страна-производитель диска (релиза): Japan
Год издания: 1987
Издатель (лейбл): Sony
Номер по каталогу: 32・8P-227
Страна исполнителя (группы): USA
Аудиокодек: FLAC (*.flac)
Тип рипа: image+.cue
Битрейт аудио: lossless
Источник (релизер): свой рип
Наличие сканов в содержимом раздачи: нет
Треклист:
1.If You All Get To Heaven 5:17
2.If You Let Me Stay 3:13
3.Wishing Well 3:30
4.I'll Never Turn My Back On You (Father's Words) 3:36
5.Dance Little Sister 3:54
6.Seven More Days 4:31
7.Let's Go Forward 5:32
8.Rain 2:59
9.Sign Your Name 4:38
10.As Yet Untitled 5:36
11.Who's Lovin' You 4:21
 
Лог создания рипа
Exact Audio Copy V1.0 beta 6 from 9. April 2015
Отчёт EAC об извлечении, выполненном 18. ноября 2017, 12:06
Terence Trent D’Arby / Introducing the Hardline According to Terence Trent D'Arby
Дисковод: MATSHITADVD-RAM UJ8B1AS Adapter: 1 ID: 0
Режим чтения : Достоверность
Использование точного потока : Да
Отключение кэша аудио : Да
Использование указателей C2 : Нет
Коррекция смещения при чтении : 6
Способность читать области Lead-in и Lead-out : Нет
Заполнение пропущенных сэмплов тишиной : Да
Удаление блоков с тишиной в начале и конце : Нет
При вычислениях CRC использовались нулевые сэмплы : Да
Интерфейс : Встроенный Win32-интерфейс для Win NT/2000
Выходной формат : Пользовательский кодировщик
Выбранный битрейт : 128 kBit/s
Качество : Высокий
Добавление ID3-тега : Нет
Утилита сжатия : C:\Program Files (x86)\Exact Audio Copy\Flac\flac.exe
Дополнительные параметры : -V -8 -T "Date=%year%" -T "Genre=%genre%" %source%
TOC извлечённого CD
Трек | Старт | Длительность | Начальный сектор | Конечный сектор
---------------------------------------------------------------------
1 | 0:00.00 | 5:17.42 | 0 | 23816
2 | 5:17.42 | 3:13.70 | 23817 | 38361
3 | 8:31.37 | 3:30.35 | 38362 | 54146
4 | 12:01.72 | 3:36.50 | 54147 | 70396
5 | 15:38.47 | 3:54.45 | 70397 | 87991
6 | 19:33.17 | 4:32.33 | 87992 | 108424
7 | 24:05.50 | 5:32.12 | 108425 | 133336
8 | 29:37.62 | 2:59.15 | 133337 | 146776
9 | 32:37.02 | 4:38.30 | 146777 | 167656
10 | 37:15.32 | 5:36.05 | 167657 | 192861
11 | 42:51.37 | 4:21.38 | 192862 | 212474
Характеристики диапазона извлечения и сообщения об ошибках
Выбранный диапазон
Имя файла C:\Users\Alex\Downloads\Terence Trent D’Arby - Introducing the Hardline According to Terence Trent D'Arby\Terence Trent D’Arby - Introducing the Hardline According to Terence Trent D'Arby.wav
Пиковый уровень 100.0 %
Скорость извлечения 4.1 X
Качество диапазона 100.0 %
CRC теста D3BF2EED
CRC копии D3BF2EED
Копирование... OK
Ошибок не произошло
AccurateRip: сводка
Трек 1 : извлечено точно (доверие 31) [7CFDEFDC] (AR v2)
Трек 2 : извлечено точно (доверие 32) [FF4A1C6E] (AR v2)
Трек 3 : извлечено точно (доверие 32) [9EBB0EA9] (AR v2)
Трек 4 : извлечено точно (доверие 31) [36702600] (AR v2)
Трек 5 : извлечено точно (доверие 31) [9BF15696] (AR v2)
Трек 6 : извлечено точно (доверие 31) [080B74E9] (AR v2)
Трек 7 : извлечено точно (доверие 31) [03698782] (AR v2)
Трек 8 : извлечено точно (доверие 31) [833B4530] (AR v2)
Трек 9 : извлечено точно (доверие 31) [A79DB1D1] (AR v2)
Трек 10 : извлечено точно (доверие 31) [A4737A49] (AR v2)
Трек 11 : извлечено точно (доверие 31) [3A34BE6B] (AR v2)
Все треки извлечены точно
Конец отчёта
==== Контрольная сумма отчёта AE6B637903A7AB53FCCA98314C005CADD4E3082BD2764938FE9CC37D2CCE5230 ====
Приватный:
Нет (DHT включён)
Размер:
282.86 Мб (296,604,392 байт) » файлов: 3
Участники:
0 раздают, 0 качают (0 участников всего)
Внешние участники:
5 раздают, 1 качают (6 участников всего) [ Обновить ]
Есть вопросы - пишите личное сообщение пользователю M0p94ok.
14:57
66
Нет комментариев. Ваш будет первым!