Поиск

(Oriental Jazz) Rabih Abou-Khalil - Journey To The Centre Of An Egg - {ENJA} - 2005, APE (image + .cue), lossless

Треклист:
Rabih Abou-Khalil - Journey To The Centre Of An Egg - {ENJA}
Страна: Germany / Enja Enj-94792
Жанр: Oriental Jazz
Год выпуска: 2005
Формат: APE (image + .cue)
Битрейт аудио: lossless
Продолжительность: 52:24
Трэклист:
1. Shrewd Woman
2. Little Camels
3. Die Brucke
4. I'm Better Off WIthout You
5. Natwashe And Katwashe
6. Mango
7. No Plastic Cups, Please
8. Sweet And Sour Milk
Доп. информация:
Rabih Abou-Khalil oud
Joachim Kühn piano, alto saxophone
Jarrod Cagwin drums, percussion
Wolfgang Reisinger additional percussion
 
Отчёт EAC
Exact Audio Copy V0.99 prebeta 2 from 28. July 2007
Отчёт EAC об извлечении, выполненном 22. октября 2007, 6:29
Rabih Abou-Khalil, Joachim Kuhn, Jarrod Cagwin / Journey To The Centre Of An Egg
Дисковод: HL-DT-STDVDRAM GSA-4167B Adapter: 0 ID: 0
Режим чтения : Достоверность
Использование точного потока : Да
Отключение кэша аудио : Да
Использование указателей C2 : Нет
Коррекция смещения при чтении : 667
Способность читать области Lead-in и Lead-out : Нет
Заполнение пропущенных сэмплов тишиной : Да
Удаление блоков с тишиной в начале и конце : Нет
При вычислениях CRC использовались нулевые сэмплы : Да
Интерфейс : Установленный внешний ASPI-интерфейс
Выходной формат : Внутренние WAV-операции
Формат сэмплов : 44.100 Гц; 16 бит; стерео
TOC извлечённого CD
Трек | Старт | Длительность | Начальный сектор | Конечный сектор
---------------------------------------------------------------------
1 | 0:00.00 | 3:40.29 | 0 | 16528
2 | 3:40.29 | 2:50.13 | 16529 | 29291
3 | 6:30.42 | 5:51.59 | 29292 | 55675
4 | 12:22.26 | 11:16.09 | 55676 | 106384
5 | 23:38.35 | 13:33.40 | 106385 | 167399
6 | 37:12.00 | 7:30.62 | 167400 | 201211
7 | 44:42.62 | 3:21.17 | 201212 | 216303
8 | 48:04.04 | 4:20.06 | 216304 | 235809
Характеристики диапазона извлечения и сообщения об ошибках
Выбранный диапазон
Имя файла H:\Muzlo\JAZZ\BIG JAZZ\RIPER-CUTTER\Rabih Abou-Khalil - Journey To The Centre Of An Egg - 2005 {ENJA}.wav
Пиковый уровень 100.0 %
Качество диапазона 100.0 %
CRC копии 39DCE67F
Копирование... OK
Ошибок не произошло
AccurateRip: сводка
Трек 1 точное извлечение (доверие 4) [BF095A3D]
Трек 2 точное извлечение (доверие 4) [E765F530]
Трек 3 точное извлечение (доверие 4) [98762939]
Трек 4 точное извлечение (доверие 4) [29C2BAB1]
Трек 5 точное извлечение (доверие 4) [B6E0D8E6]
Трек 6 точное извлечение (доверие 4) [BCBFD904]
Трек 7 точное извлечение (доверие 4) [6D85DB4F]
Трек 8 точное извлечение (доверие 4) [E999B6EA]
Все треки извлечены точно
Конец отчёта
23:39
577
Нет комментариев. Ваш будет первым!