Поиск

(Oriental Jazz) Rabih Abou-Khalil - Blue Camel - {ENJA} - 1992, APE (image + .cue), lossless

Треклист:
Rabih Abou-Khalil - Blue Camel - {ENJA}
Страна: Enja Records, Germany [ENJ-70532]
Жанр: Oriental Jazz
Год выпуска: 1992
Формат: APE (image + .cue)
Битрейт аудио: lossless
Продолжительность: 61:01
Трэклист:
1. Sahara
2. Tsarka
3. Ziriab
4. Blue Camel
5. On Time
6. A Night In The Mountains
7. Rabou-Abou-Kabou
8. Beirut
Доп. информация:
Rabih Abou-Khalil (oud)
Charlie "Sir Charles" Mariano (alto saxophone)
Kenny Wheeler (flugelhorn, trumpet)
Steve "Dr. Zvalov" Swallow (bass)
Nabil Khaiat (frame drums)
Milton Cardona (congas)
Ramesh Shotham (South Indian drums, percussion)
 
Отчёт EAC
Exact Audio Copy V0.99 prebeta 3 from 28. July 2007
Отчёт EAC об извлечении, выполненном 19. декабря 2007, 22:29
Rabih Abou-Khalil / Blue Camel
Дисковод: HL-DT-STDVDRAM GSA-4167B Adapter: 0 ID: 0
Режим чтения : Достоверность
Использование точного потока : Да
Отключение кэша аудио : Нет
Использование указателей C2 : Да
Коррекция смещения при чтении : 667
Способность читать области Lead-in и Lead-out : Нет
Заполнение пропущенных сэмплов тишиной : Да
Удаление блоков с тишиной в начале и конце : Нет
При вычислениях CRC использовались нулевые сэмплы : Да
Интерфейс : Встроенный Win32-интерфейс для Win NT/2000
Выходной формат : Внутренние WAV-операции
Формат сэмплов : 44.100 Гц; 16 бит; стерео
TOC извлечённого CD
Трек | Старт | Длительность | Начальный сектор | Конечный сектор
---------------------------------------------------------------------
1 | 0:00.00 | 8:18.27 | 0 | 37376
2 | 8:18.27 | 6:47.33 | 37377 | 67934
3 | 15:05.60 | 6:52.12 | 67935 | 98846
4 | 21:57.72 | 8:22.03 | 98847 | 136499
5 | 30:20.00 | 6:21.57 | 136500 | 165131
6 | 36:41.57 | 8:37.15 | 165132 | 203921
7 | 45:18.72 | 4:50.23 | 203922 | 225694
8 | 50:09.20 | 10:52.15 | 225695 | 274609
Характеристики диапазона извлечения и сообщения об ошибках
Выбранный диапазон
Имя файла G:\Muzlo\JAZZ\BIG JAZZ\RIPER-CUTTER\Rabih Abou-Khalil - Blue Camel - 1992 {ENJA}.wav
Пиковый уровень 100.0 %
Качество диапазона 100.0 %
CRC копии C637194F
Копирование... OK
Ошибок не произошло
AccurateRip: сводка
Трек 1 точное извлечение (доверие 2) [5A8666F9]
Трек 2 точное извлечение (доверие 2) [E451248D]
Трек 3 точное извлечение (доверие 2) [E70D78C2]
Трек 4 точное извлечение (доверие 2) [F54DCBEE]
Трек 5 точное извлечение (доверие 2) [0AF5B434]
Трек 6 точное извлечение (доверие 2) [A21BC1EF]
Трек 7 точное извлечение (доверие 2) [B283C10A]
Трек 8 точное извлечение (доверие 2) [260B56DE]
Все треки извлечены точно
Конец отчёта
Продолжаем пополнять дискографию Кхалиля. Всё с фирмачей. Коврики присутствуют в обязательном порядке (300dpi). Приятного всем прослушивания. Следующий будет "Tarab" 1993.
00:05
546
Нет комментариев. Ваш будет первым!