Поиск

(Oriental Jazz) Rabih Abou-Khalil - Al-Jadida - 1991, APE (image + .cue), lossless

Треклист:
Rabih Abou-Khalil - Al-Jadida
Страна: Germany / Enja Enj-60902
Жанр: Oriental Jazz
Год выпуска: 1991
Формат: APE (image + .cue)
Битрейт аудио: lossless
Продолжительность: 58:34
Трэклист:
1. Catania
2. Nasbuwa
3. Evening With Jerry, An
4. When The Lights Go Out
5. Story Teller
6. Ornette Never Sleeps
7. Nadim
8. Wishing Well
Доп. информация:

Personnel:
Rabih Abou-Khalil (oud);
Sonny Fortune (alto saxophone);
Glen Moore (bass);
Ramesh Shotham (South Indian drums, percussion);
Nabil Khaiat (frame drums, percussion).
Recorded at Bauer Studios, Ludwigsburg, Germany from October 8-10, 1990. Includes liner notes by Jerry G. Bauer.
 
Отчёт EAC
Exact Audio Copy V0.99 prebeta 2 from 28. July 2007
Отчёт EAC об извлечении, выполненном 31. октября 2007, 7:05
Rabih Abou-Khalil / Al-Jadida
Дисковод: HL-DT-STDVDRAM GSA-4167B Adapter: 0 ID: 0
Режим чтения : Достоверность
Использование точного потока : Да
Отключение кэша аудио : Да
Использование указателей C2 : Нет
Коррекция смещения при чтении : 667
Способность читать области Lead-in и Lead-out : Нет
Заполнение пропущенных сэмплов тишиной : Да
Удаление блоков с тишиной в начале и конце : Нет
При вычислениях CRC использовались нулевые сэмплы : Да
Интерфейс : Установленный внешний ASPI-интерфейс
Выходной формат : Внутренние WAV-операции
Формат сэмплов : 44.100 Гц; 16 бит; стерео
TOC извлечённого CD
Трек | Старт | Длительность | Начальный сектор | Конечный сектор
---------------------------------------------------------------------
1 | 0:00.33 | 7:45.00 | 33 | 34907
2 | 7:45.33 | 9:38.00 | 34908 | 78257
3 | 17:23.33 | 7:03.00 | 78258 | 109982
4 | 24:26.33 | 7:13.72 | 109983 | 142529
5 | 31:40.30 | 8:52.13 | 142530 | 182442
6 | 40:32.43 | 4:03.65 | 182443 | 200732
7 | 44:36.33 | 8:33.00 | 200733 | 239207
8 | 53:09.33 | 5:25.00 | 239208 | 263582
Характеристики диапазона извлечения и сообщения об ошибках
Выбранный диапазон
Имя файла H:\Muzlo\JAZZ\BIG JAZZ\RIPER-CUTTER\Rabih Abou-Khalil - Al-Jadida - 1991 {ENJA}.wav
Пиковый уровень 96.6 %
Качество диапазона 100.0 %
CRC копии C99FE921
Копирование... OK
Ошибок не произошло
Конец отчёта
23:48
580
Нет комментариев. Ваш будет первым!