Поиск

(Nueva Trova / Afro-Cuban Jazz) Silvio Rodríguez (Silvio Rodriguez) - Causas Y Azares (con Afrocuba) - 1986 (1992), FLAC (tracks+.cue), lossless

(Nueva Trova / Afro-Cuban Jazz) Silvio Rodríguez (Silvio Rodriguez) - Causas Y Azares (con Afrocuba) - 1986 (1992), FLAC (tracks+.cue), lossless
Треклист:
Silvio Rodríguez (con Afrocuba) - Causas Y Azares
Жанр: Nueva Trova / Afro-Cuban Jazz
Страна-производитель диска: Argentina
Год издания диска: 1986 (1992)
Издатель (лейбл): Polydor
Номер по каталогу: 513646-2
Страна: Cuba
Аудиокодек: FLAC (*.flac)
Тип рипа: tracks+.cue
Битрейт аудио: lossless
Продолжительность: 1:07:19
Источник (релизер): what.cd (goldenwings)
Наличие сканов в содержимом раздачи: да
Треклист:
1. Causas Y Azares 5:26
2. Canto Arena 4:26
3. Sólo El Amor 4:14
4. Historia De Las Sillas 2:31
5. Canción En Harapos (fragmento) 1:12
6. Canción En Harapos 6:33
7. Hallazgo De Las Piedras / Te Conozco / Coda: Te Conozco 11:51
8. Sueño De Una Noche De Verano 6:24
9. En Mi Calle 3:46
10. Cuando Digo Futuro 3:09
11. El Pintor De Las Mujeres - Soles 2:24
12. Boga Boga 4:05
13. Réquiem 3:43
14. No Hacen Falta Alas 7:36
 
Лог создания рипа
Exact Audio Copy V1.0 beta 2 from 29. April 2011
EAC extraction logfile from 11. November 2011, 0:39
Silvio Rodríguez / Causas Y Azares
Used drive : TSSTcorpCDDVDW SH-S203D Adapter: 3 ID: 0
Read mode : Secure
Utilize accurate stream : Yes
Defeat audio cache : Yes
Make use of C2 pointers : No
Read offset correction : 6
Overread into Lead-In and Lead-Out : No
Fill up missing offset samples with silence : Yes
Delete leading and trailing silent blocks : No
Null samples used in CRC calculations : Yes
Used interface : Native Win32 interface for Win NT & 2000
Gap handling : Appended to previous track
Used output format : User Defined Encoder
Selected bitrate : 896 kBit/s
Quality : High
Add ID3 tag : No
Command line compressor : C:\Archivos de programa\Exact Audio Copy\FLAC\FLAC.EXE
Additional command line options : -8 -V -T "ARTIST=%artist%" -T "TITLE=%title%" -T "ALBUM=%albumtitle%" -T "DATE=%year%" -T "TRACKNUMBER=%tracknr%" -T "GENRE=%genre%" -T "PERFORMER=%albuminterpret%" -T "COMPOSER=%composer%" %haslyrics%--tag-from-file=LYRICS
TOC of the extracted CD
Track | Start | Length | Start sector | End sector
---------------------------------------------------------
1 | 0:00.33 | 5:25.50 | 33 | 24457
2 | 5:26.08 | 4:25.52 | 24458 | 44384
3 | 9:51.60 | 4:13.48 | 44385 | 63407
4 | 14:05.33 | 2:30.52 | 63408 | 74709
5 | 16:36.10 | 1:11.58 | 74710 | 80092
6 | 17:47.68 | 6:32.57 | 80093 | 109549
7 | 24:20.50 | 11:51.05 | 109550 | 162879
8 | 36:11.55 | 6:24.35 | 162880 | 191714
9 | 42:36.15 | 3:46.33 | 191715 | 208697
10 | 46:22.48 | 3:08.70 | 208698 | 222867
11 | 49:31.43 | 2:23.72 | 222868 | 233664
12 | 51:55.40 | 4:04.38 | 233665 | 252002
13 | 56:00.03 | 3:42.67 | 252003 | 268719
14 | 59:42.70 | 7:36.23 | 268720 | 302942
Track 1
Filename G:\Lossless con Tags y ya en excel\4. Latinoamérica\Silvio Rodríguez - 1986 - Causas Y Azares\01- Causas Y Azares.wav
Pre-gap length 0:00:02.33
Peak level 100.0 %
Extraction speed 4.5 X
Track quality 99.9 %
Test CRC 5553FC2B
Copy CRC 5553FC2B
Track not present in AccurateRip database
Copy OK
Track 2
Filename G:\Lossless con Tags y ya en excel\4. Latinoamérica\Silvio Rodríguez - 1986 - Causas Y Azares\02- Canto Arena.wav
Pre-gap length 0:00:02.45
Peak level 75.9 %
Extraction speed 5.7 X
Track quality 100.0 %
Test CRC 339AAA86
Copy CRC 339AAA86
Track not present in AccurateRip database
Copy OK
Track 3
Filename G:\Lossless con Tags y ya en excel\4. Latinoamérica\Silvio Rodríguez - 1986 - Causas Y Azares\03- Sólo El Amor.wav
Pre-gap length 0:00:02.55
Peak level 97.5 %
Extraction speed 4.9 X
Track quality 99.9 %
Test CRC 295E2CB8
Copy CRC 295E2CB8
Track not present in AccurateRip database
Copy OK
Track 4
Filename G:\Lossless con Tags y ya en excel\4. Latinoamérica\Silvio Rodríguez - 1986 - Causas Y Azares\04- Historia De Las Sillas.wav
Pre-gap length 0:00:03.43
Peak level 89.3 %
Extraction speed 4.3 X
Track quality 99.9 %
Test CRC 840DF5BC
Copy CRC 840DF5BC
Track not present in AccurateRip database
Copy OK
Track 5
Filename G:\Lossless con Tags y ya en excel\4. Latinoamérica\Silvio Rodríguez - 1986 - Causas Y Azares\05- Canción En Harapos (fragmento).wav
Pre-gap length 0:00:03.12
Peak level 81.8 %
Extraction speed 4.9 X
Track quality 100.0 %
Test CRC BAF3D032
Copy CRC BAF3D032
Track not present in AccurateRip database
Copy OK
Track 6
Filename G:\Lossless con Tags y ya en excel\4. Latinoamérica\Silvio Rodríguez - 1986 - Causas Y Azares\06- Canción En Harapos.wav
Pre-gap length 0:00:02.65
Peak level 86.3 %
Extraction speed 6.2 X
Track quality 99.9 %
Test CRC 1D61FBC0
Copy CRC 1D61FBC0
Track not present in AccurateRip database
Copy OK
Track 7
Filename G:\Lossless con Tags y ya en excel\4. Latinoamérica\Silvio Rodríguez - 1986 - Causas Y Azares\07- Hallazgo De Las Piedras - Te Conozco - Coda- Te Conozco.wav
Pre-gap length 0:00:05.05
Peak level 100.0 %
Extraction speed 7.0 X
Track quality 99.9 %
Test CRC 98FA0596
Copy CRC 98FA0596
Track not present in AccurateRip database
Copy OK
Track 8
Filename G:\Lossless con Tags y ya en excel\4. Latinoamérica\Silvio Rodríguez - 1986 - Causas Y Azares\08- Sueño De Una Noche De Verano.wav
Pre-gap length 0:00:03.65
Peak level 89.5 %
Extraction speed 7.4 X
Track quality 99.9 %
Test CRC C4BAD4C5
Copy CRC C4BAD4C5
Track not present in AccurateRip database
Copy OK
Track 9
Filename G:\Lossless con Tags y ya en excel\4. Latinoamérica\Silvio Rodríguez - 1986 - Causas Y Azares\09- En Mi Calle.wav
Pre-gap length 0:00:02.50
Peak level 79.8 %
Extraction speed 8.2 X
Track quality 100.0 %
Test CRC 466E9535
Copy CRC 466E9535
Track not present in AccurateRip database
Copy OK
Track 10
Filename G:\Lossless con Tags y ya en excel\4. Latinoamérica\Silvio Rodríguez - 1986 - Causas Y Azares\10- Cuando Digo Futuro.wav
Pre-gap length 0:00:02.25
Peak level 86.0 %
Extraction speed 8.1 X
Track quality 100.0 %
Test CRC 74A28B57
Copy CRC 74A28B57
Track not present in AccurateRip database
Copy OK
Track 11
Filename G:\Lossless con Tags y ya en excel\4. Latinoamérica\Silvio Rodríguez - 1986 - Causas Y Azares\11- El Pintor De Las Mujeres Soles.wav
Pre-gap length 0:00:03.03
Peak level 78.4 %
Extraction speed 8.0 X
Track quality 100.0 %
Test CRC D1079043
Copy CRC D1079043
Track not present in AccurateRip database
Copy OK
Track 12
Filename G:\Lossless con Tags y ya en excel\4. Latinoamérica\Silvio Rodríguez - 1986 - Causas Y Azares\12- Boga Boga.wav
Pre-gap length 0:00:02.37
Peak level 100.0 %
Extraction speed 7.9 X
Track quality 100.0 %
Test CRC 99B03AEE
Copy CRC 99B03AEE
Track not present in AccurateRip database
Copy OK
Track 13
Filename G:\Lossless con Tags y ya en excel\4. Latinoamérica\Silvio Rodríguez - 1986 - Causas Y Azares\13- Réquiem.wav
Pre-gap length 0:00:03.20
Peak level 100.0 %
Extraction speed 9.0 X
Track quality 100.0 %
Test CRC 2C000D12
Copy CRC 2C000D12
Track not present in AccurateRip database
Copy OK
Track 14
Filename G:\Lossless con Tags y ya en excel\4. Latinoamérica\Silvio Rodríguez - 1986 - Causas Y Azares\14- No Hacen Falta Alas.wav
Pre-gap length 0:00:02.57
Peak level 98.1 %
Extraction speed 8.9 X
Track quality 99.9 %
Test CRC 61EC1A4E
Copy CRC 61EC1A4E
Track not present in AccurateRip database
Copy OK
None of the tracks are present in the AccurateRip database
No errors occurred
End of status report
==== Log checksum A6C5DA3920D3B29C57108BF2B5AFC3E82A2556D00E6C8CBEA560D6FEE568DD55 ====
 
Содержание индексной карты (.CUE)
REM GENRE "Nueva Trova / Afro-Cuban Jazz"
REM DATE 1986
REM DISCID E30FC70E
REM COMMENT "ExactAudioCopy v1.0b2"
PERFORMER "Silvio Rodriguez"
TITLE "Causas Y Azares"
FILE "01 - Causas Y Azares.wav" WAVE
TRACK 01 AUDIO
TITLE "Causas Y Azares"
PERFORMER "Silvio Rodriguez"
PREGAP 00:00:33
INDEX 01 00:00:00
TRACK 02 AUDIO
TITLE "Canto Arena"
PERFORMER "Silvio Rodriguez"
INDEX 00 05:23:05
FILE "02 - Canto Arena.wav" WAVE
INDEX 01 00:00:00
TRACK 03 AUDIO
TITLE "Solo El Amor"
PERFORMER "Silvio Rodriguez"
INDEX 00 04:22:72
FILE "03 - Solo El Amor.wav" WAVE
INDEX 01 00:00:00
TRACK 04 AUDIO
TITLE "Historia De Las Sillas"
PERFORMER "Silvio Rodriguez"
INDEX 00 04:10:05
FILE "04 - Historia De Las Sillas.wav" WAVE
INDEX 01 00:00:00
TRACK 05 AUDIO
TITLE "Cancion En Harapos (fragmento)"
PERFORMER "Silvio Rodriguez"
INDEX 00 02:27:40
FILE "05 - Cancion En Harapos (fragmento).wav" WAVE
INDEX 01 00:00:00
TRACK 06 AUDIO
TITLE "Cancion En Harapos"
PERFORMER "Silvio Rodriguez"
INDEX 00 01:08:68
FILE "06 - Cancion En Harapos.wav" WAVE
INDEX 01 00:00:00
TRACK 07 AUDIO
TITLE "Hallazgo De Las Piedras / Te Conozco / Coda: Te Conozco"
PERFORMER "Silvio Rodriguez"
INDEX 00 06:27:52
FILE "07 - Hallazgo De Las Piedras.wav" WAVE
INDEX 01 00:00:00
TRACK 08 AUDIO
TITLE "Sueno De Una Noche De Verano"
PERFORMER "Silvio Rodriguez"
INDEX 00 11:47:15
FILE "08 - Sueno De Una Noche De Verano.wav" WAVE
INDEX 01 00:00:00
TRACK 09 AUDIO
TITLE "En Mi Calle"
PERFORMER "Silvio Rodriguez"
INDEX 00 06:21:60
FILE "09 - En Mi Calle.wav" WAVE
INDEX 01 00:00:00
TRACK 10 AUDIO
TITLE "Cuando Digo Futuro"
PERFORMER "Silvio Rodriguez"
INDEX 00 03:44:08
FILE "10 - Cuando Digo Futuro.wav" WAVE
INDEX 01 00:00:00
TRACK 11 AUDIO
TITLE "El Pintor De Las Mujeres - Soles"
PERFORMER "Silvio Rodriguez"
INDEX 00 03:05:67
FILE "11 - El Pintor De Las Mujeres - Soles.wav" WAVE
INDEX 01 00:00:00
TRACK 12 AUDIO
TITLE "Boga Boga"
PERFORMER "Silvio Rodriguez"
INDEX 00 02:21:35
FILE "12 - Boga Boga.wav" WAVE
INDEX 01 00:00:00
TRACK 13 AUDIO
TITLE "Requiem"
PERFORMER "Silvio Rodriguez"
INDEX 00 04:01:18
FILE "13 - Requiem.wav" WAVE
INDEX 01 00:00:00
TRACK 14 AUDIO
TITLE "No Hacen Falta Alas"
PERFORMER "Silvio Rodriguez"
INDEX 00 03:40:10
FILE "14 - No Hacen Falta Alas.wav" WAVE
INDEX 01 00:00:00
 
Скриншот спектра частот
Доп. информация: Causas Y Azares
 
Об исполнителе (группе)
Silvio Rodríguez Domínguez (San Antonio de Los Baños, Cuba, 29 de noviembre de 1946). Músico, poeta y cantautor cubano.
Биография http://es.wikipedia.org/wiki/Silvio_Rodr%C3%ADguez (español) http://en.wikipedia.org/wiki/Silvio_Rodr%C3%ADguez (english)
Дискография http://www.cancioneros.com/cc/8/0/discografia-de-silvio-rodriguez (español)
Форум http://silviofilos.creatuforo.com/index.php (español)
Afrocuba is an Cuban based Afro-Cuban jazz septet started in 1978 and led by bandleader and trumpeter Roberto Garcia López, along with saxophonist David Suarez Merlin and others from the Havana Conservatoire of Music.
wikipedia.org
01:08
405
Нет комментариев. Ваш будет первым!