Вы используете незарегистрированную версию компонента "Вкладки"!

Поиск

(nu bossa, lounge) SUBA - Sao Paulo Confessions - 1999, FLAC (image+.cue), lossless

(nu bossa, lounge) SUBA - Sao Paulo Confessions - 1999, FLAC (image+.cue), lossless
Треклист:
SUBA - Sao Paulo Confessions
Жанр: nu bossa, lounge
Год выпуска диска: 1999
Производитель диска: EU
Аудио кодек: FLAC
Тип рипа: image+.cue
Битрейт аудио: lossless
Продолжительность: 61:20
Трэклист:
1. Tantos Desejos [So Many Desires]
2. Voce Gosta [I Know What You Like]
3. Na Neblina [In the Fog]
4. Segredo [Secret]
5. Antropofagos [Cannibals]
6. Felicidade [Happiness]
7. Um Dia Comum [A Normal Day]
8. Sereia [Mermaid]
9. Samba Do Gringo Paulista [Paulista Gringo's Samba]
10. Abraco [Embrace]
11. Pecados da Madrugada [Sins Before Dawn]
12. Noite Sem Fim [The Endless Night]
Доп. информация: все обложки в разрешении 600dpi
.
.
.
 
Лог EAC
Exact Audio Copy V0.99 prebeta 4 from 23. January 2008
Отчёт EAC об извлечении, выполненном 17. октября 2008, 21:34
Suba / Sгo Paulo Confessions
Дисковод: BENQ DVD DD EW164B Adapter: 3 ID: 0
Режим чтения : Достоверность
Использование точного потока : Да
Отключение кэша аудио : Да
Использование указателей C2 : Нет
Коррекция смещения при чтении : 618
Способность читать области Lead-in и Lead-out : Нет
Заполнение пропущенных сэмплов тишиной : Да
Удаление блоков с тишиной в начале и конце : Нет
При вычислениях CRC использовались нулевые сэмплы : Нет
Интерфейс : Встроенный Win32-интерфейс для Win NT/2000
Выходной формат : Внутренние WAV-операции
Формат сэмплов : 44.100 Гц; 16 бит; стерео
TOC извлечённого CD
Трек | Старт | Длительность | Начальный сектор | Конечный сектор
---------------------------------------------------------------------
1 | 0:00.00 | 4:27.27 | 0 | 20051
2 | 4:27.27 | 4:20.60 | 20052 | 39611
3 | 8:48.12 | 4:43.18 | 39612 | 60854
4 | 13:31.30 | 4:03.02 | 60855 | 79081
5 | 17:34.32 | 6:22.60 | 79082 | 107791
6 | 23:57.17 | 4:21.13 | 107792 | 127379
7 | 28:18.30 | 4:59.27 | 127380 | 149831
8 | 33:17.57 | 6:00.03 | 149832 | 176834
9 | 39:17.60 | 4:49.42 | 176835 | 198551
10 | 44:07.27 | 5:05.08 | 198552 | 221434
11 | 49:12.35 | 5:05.20 | 221435 | 244329
12 | 54:17.55 | 7:02.62 | 244330 | 276041
Характеристики диапазона извлечения и сообщения об ошибках
Выбранный диапазон
Имя файла G:\WAW\suba sao paulo confession\Suba - Sгo Paulo Confessions.wav
Пиковый уровень 100.0 %
Качество диапазона 100.0 %
CRC копии 575395C3
Копирование... OK
Ошибок не произошло
AccurateRip: сводка
Трек 1 точное извлечение (доверие 6) [DC54692D]
Трек 2 точное извлечение (доверие 6) [EEE4EB35]
Трек 3 точное извлечение (доверие 6) [1F508411]
Трек 4 точное извлечение (доверие 6) [E5A0E149]
Трек 5 точное извлечение (доверие 6) [32A03E91]
Трек 6 точное извлечение (доверие 6) [38097C0B]
Трек 7 точное извлечение (доверие 6) [0D268F41]
Трек 8 точное извлечение (доверие 6) [666960E3]
Трек 9 точное извлечение (доверие 6) [FBA055D9]
Трек 10 точное извлечение (доверие 5) [55A42A6E]
Трек 11 точное извлечение (доверие 6) [0A4B0826]
Трек 12 точное извлечение (доверие 6) [A22276FB]
Все треки извлечены точно
Конец отчёта
Any questions -> support@pro-jazz.com. По всем вопросам пишите -> support@pro-jazz.com
19:02
412
Нет комментариев. Ваш будет первым!