Поиск

(Nouveau Flamenco, Vocal Jazz, Latin) [CD] Concha Buika - Vivir Sin Miedo - 2015, FLAC (tracks+.cue), lossless

(Nouveau Flamenco, Vocal Jazz, Latin) [CD] Concha Buika - Vivir Sin Miedo - 2015, FLAC (tracks+.cue), lossless
Треклист:
Buika - Vivir Sin Miedo Жанр: Nouveau Flamenco, Vocal Jazz, Latin
Носитель: CD
Год издания: 2015
Издатель (лейбл): EastWest
Номер по каталогу: 2564607045
Аудиокодек: FLAC (*.flac)
Тип рипа: tracks+.cue
Битрейт аудио: lossless
Продолжительность: 47:28
Rip by jlgt
Наличие сканов в содержимом раздачи: да
Треклист:
01. Vivir Sin Miedo (4:48)
02. Si Volvere (5:21)
03. Carry Your Own Weight (4:11)
04. Mucho Dinero (3:02)
05. Waves (4:16)
06. Good Men (4:07)
07. Cidade Do Amor (4:06)
08. Yo Ire (4:43)
09. The Key (8:30)
10. Sister (4:24)
 
 
Лог создания рипа
Exact Audio Copy V1.0 beta 3 from 29. August 2011
EAC extraction logfile from 31. January 2016, 2:06
Buika / Vivir Sin Miedo
Used drive : PLEXTOR DVDR PX-891SA Adapter: 4 ID: 1
Read mode : Secure
Utilize accurate stream : Yes
Defeat audio cache : Yes
Make use of C2 pointers : No
Read offset correction : 6
Overread into Lead-In and Lead-Out : No
Fill up missing offset samples with silence : Yes
Delete leading and trailing silent blocks : No
Null samples used in CRC calculations : Yes
Used interface : Native Win32 interface for Win NT & 2000
Gap handling : Appended to previous track
Used output format : User Defined Encoder
Selected bitrate : 128 kBit/s
Quality : High
Add ID3 tag : No
Command line compressor : C:\Program Files (x86)\Exact Audio Copy\FLAC\FLAC.EXE
Additional command line options : -8 -V -T "ARTIST=%artist%" -T "TITLE=%title%" -T "ALBUM=%albumtitle%" -T "DATE=%year%" -T "TRACKNUMBER=%tracknr%" -T "TOTALTRACKS=%numtracks%" -T "GENRE=%genre%" -T "ALBUMARTIST=%albumartist%" -T "ALBUM ARTIST=%albumartist%" -T "COMMENT=EAC Secure Mode, Test & Copy, AccurateRip, FLAC -8" %source%
TOC of the extracted CD
Track | Start | Length | Start sector | End sector
---------------------------------------------------------
1 | 0:00.00 | 4:48.08 | 0 | 21607
2 | 4:48.08 | 5:20.44 | 21608 | 45651
3 | 10:08.52 | 4:11.35 | 45652 | 64511
4 | 14:20.12 | 3:01.59 | 64512 | 78145
5 | 17:21.71 | 4:15.41 | 78146 | 97311
6 | 21:37.37 | 4:06.58 | 97312 | 115819
7 | 25:44.20 | 4:06.37 | 115820 | 134306
8 | 29:50.57 | 4:43.28 | 134307 | 155559
9 | 34:34.10 | 8:29.73 | 155560 | 193807
10 | 43:04.08 | 4:24.19 | 193808 | 213626
Track 1
Filename E:\01 - Vivir Sin Miedo.wav
Pre-gap length 0:00:02.00
Peak level 98.0 %
Extraction speed 5.4 X
Track quality 100.0 %
Test CRC 0885A965
Copy CRC 0885A965
Accurately ripped (confidence 2) [127EBC2D] (AR v2)
Copy OK
Track 2
Filename E:\02 - Si Volvere.wav
Peak level 98.0 %
Extraction speed 6.2 X
Track quality 100.0 %
Test CRC 88416E09
Copy CRC 88416E09
Accurately ripped (confidence 2) [882DD1FE] (AR v2)
Copy OK
Track 3
Filename E:\03 - Carry Your Own Weight.wav
Peak level 98.0 %
Extraction speed 6.6 X
Track quality 100.0 %
Test CRC 8C614FDC
Copy CRC 8C614FDC
Accurately ripped (confidence 2) [4D8FFE24] (AR v2)
Copy OK
Track 4
Filename E:\04 - Mucho Dinero.wav
Peak level 98.0 %
Extraction speed 6.5 X
Track quality 100.0 %
Test CRC D4A678E9
Copy CRC D4A678E9
Accurately ripped (confidence 2) [D3729C9E] (AR v2)
Copy OK
Track 5
Filename E:\05 - Waves.wav
Peak level 98.0 %
Extraction speed 7.3 X
Track quality 100.0 %
Test CRC 4742C818
Copy CRC 4742C818
Accurately ripped (confidence 2) [F271CBCF] (AR v2)
Copy OK
Track 6
Filename E:\06 - Good Men.wav
Peak level 98.0 %
Extraction speed 7.6 X
Track quality 100.0 %
Test CRC 54FA21BB
Copy CRC 54FA21BB
Accurately ripped (confidence 2) [D1D492DA] (AR v2)
Copy OK
Track 7
Filename E:\07 - Cidade Do Amor.wav
Peak level 98.0 %
Extraction speed 7.9 X
Track quality 100.0 %
Test CRC 04CDA0B1
Copy CRC 04CDA0B1
Accurately ripped (confidence 2) [E1378347] (AR v2)
Copy OK
Track 8
Filename E:\08 - Yo Ire.wav
Peak level 98.0 %
Extraction speed 8.5 X
Track quality 100.0 %
Test CRC 1F6CA721
Copy CRC 1F6CA721
Accurately ripped (confidence 2) [EF2618C5] (AR v2)
Copy OK
Track 9
Filename E:\09 - The Key.wav
Peak level 98.0 %
Extraction speed 8.6 X
Track quality 99.9 %
Test CRC EB6E0FD9
Copy CRC EB6E0FD9
Accurately ripped (confidence 2) [5E6BFA01] (AR v2)
Copy OK
Track 10
Filename E:\10 - Sister.wav
Peak level 98.0 %
Extraction speed 7.9 X
Track quality 99.9 %
Test CRC BEEDAF4D
Copy CRC BEEDAF4D
Accurately ripped (confidence 2) [C1B4CBF1] (AR v2)
Copy OK
All tracks accurately ripped
No errors occurred
End of status report
==== Log checksum 3426875D7B7F7362C65F8C716C12044B4A0A367603AEEB0DDB2C2C62A688E06F ====
 
Содержание индексной карты (.CUE)
REM GENRE Latin
REM DATE 2015
REM DISCID 880B200A
REM COMMENT "ExactAudioCopy v1.0b3"
PERFORMER "Buika"
TITLE "Vivir Sin Miedo"
FILE "01 - Vivir Sin Miedo.wav" WAVE
TRACK 01 AUDIO
TITLE "Vivir Sin Miedo"
PERFORMER "Buika"
INDEX 01 00:00:00
FILE "02 - Si Volvere.wav" WAVE
TRACK 02 AUDIO
TITLE "Si Volvere"
PERFORMER "Buika"
INDEX 01 00:00:00
FILE "03 - Carry Your Own Weight.wav" WAVE
TRACK 03 AUDIO
TITLE "Carry Your Own Weight"
PERFORMER "Buika"
INDEX 01 00:00:00
FILE "04 - Mucho Dinero.wav" WAVE
TRACK 04 AUDIO
TITLE "Mucho Dinero"
PERFORMER "Buika"
INDEX 01 00:00:00
FILE "05 - Waves.wav" WAVE
TRACK 05 AUDIO
TITLE "Waves"
PERFORMER "Buika"
INDEX 01 00:00:00
FILE "06 - Good Men.wav" WAVE
TRACK 06 AUDIO
TITLE "Good Men"
PERFORMER "Buika"
INDEX 01 00:00:00
FILE "07 - Cidade Do Amor.wav" WAVE
TRACK 07 AUDIO
TITLE "Cidade Do Amor"
PERFORMER "Buika"
INDEX 01 00:00:00
FILE "08 - Yo Ire.wav" WAVE
TRACK 08 AUDIO
TITLE "Yo Ire"
PERFORMER "Buika"
INDEX 01 00:00:00
FILE "09 - The Key.wav" WAVE
TRACK 09 AUDIO
TITLE "The Key"
PERFORMER "Buika"
INDEX 01 00:00:00
FILE "10 - Sister.wav" WAVE
TRACK 10 AUDIO
TITLE "Sister"
PERFORMER "Buika"
INDEX 01 00:00:00
20:36
238
Нет комментариев. Ваш будет первым!