Поиск

(northern funk, soul, acid jazz, disco) [CD] Smoove & Turrell - Broken Toys - 2014, FLAC (tracks+.cue), lossless

(northern funk, soul, acid jazz, disco) [CD] Smoove & Turrell - Broken Toys - 2014, FLAC (tracks+.cue), lossless
Треклист:
Smoove + Turrell - Broken Toys

Жанр: northern funk, soul, acid jazz
Носитель: CD
Страна-производитель диска (релиза): UK
Год издания: 2014
Издатель (лейбл): Jalapeno Records
Номер по каталогу: JAL 178
Страна исполнителя (группы): UK
Аудиокодек: FLAC (*.flac)
Тип рипа: tracks+.cue
Битрейт аудио: lossless
Продолжительность: 55:29
Источник (релизер): вафля Merseph
Наличие сканов в содержимом раздачи: да
Треклист:
1. Have Love
2. Will You Be Mine
3. Lay it on Me
4. Long Way to Fall
5. Play to Win
6. People Keep Talking
7. Always
8. I Just Want More
9. The Clown
10. Broken Toys
11. One Woman Army
12. Coming Home
13. Now or Never
Сложно вот так вспомнить, кто сейчас делает чтото фанки вкусное...они делают)
 
Лог создания рипа
Exact Audio Copy V1.0 beta 3 from 29. August 2011
EAC extraction logfile from 25. July 2014, 14:02
Smoove & Turrell / Broken Toys
Used drive : ATAPI DVD A DH16AASH Adapter: 1 ID: 1
Read mode : Secure
Utilize accurate stream : Yes
Defeat audio cache : Yes
Make use of C2 pointers : No
Read offset correction : 6
Overread into Lead-In and Lead-Out : No
Fill up missing offset samples with silence : Yes
Delete leading and trailing silent blocks : No
Null samples used in CRC calculations : Yes
Used interface : Native Win32 interface for Win NT & 2000
Gap handling : Appended to previous track
Used output format : User Defined Encoder
Selected bitrate : 1024 kBit/s
Quality : High
Add ID3 tag : No
Command line compressor : C:\Program Files (x86)\FLAC\flac.exe
Additional command line options : -8 -V -T "ARTIST=%artist%" -T "TITLE=%title%" -T "ALBUM=%albumtitle%" -T "DATE=%year%" -T "TRACKNUMBER=%tracknr%" -T "GENRE=%genre%" -T "PERFORMER=%albuminterpret%" -T "COMPOSER=%composer%" %haslyrics%--tag-from-file=LYRICS="%lyricsfile%"%haslyrics% -T "ALBUMARTIST=%albumartist%" -T "ALBUM ARTIST=%albumartist%" -T "DISCNUMBER=%cdnumber%" -T "TOTALDISCS=%totalcds%" -T "TOTALTRACKS=%numtracks%" -T "COMMENT=EAC V1.0 beta 2, Secure Mode, Test & Copy, AccurateRip, FLAC -8" %source% -o %dest%
TOC of the extracted CD
Track | Start | Length | Start sector | End sector
---------------------------------------------------------
1 | 0:00.00 | 5:01.43 | 0 | 22617
2 | 5:01.43 | 4:41.71 | 22618 | 43763
3 | 9:43.39 | 3:24.35 | 43764 | 59098
4 | 13:07.74 | 3:20.71 | 59099 | 74169
5 | 16:28.70 | 3:56.00 | 74170 | 91869
6 | 20:24.70 | 4:11.41 | 91870 | 110735
7 | 24:36.36 | 4:00.34 | 110736 | 128769
8 | 28:36.70 | 5:12.39 | 128770 | 152208
9 | 33:49.34 | 3:35.71 | 152209 | 168404
10 | 37:25.30 | 7:38.04 | 168405 | 202758
11 | 45:03.34 | 3:21.53 | 202759 | 217886
12 | 48:25.12 | 3:02.32 | 217887 | 231568
13 | 51:27.44 | 4:08.39 | 231569 | 250207
Track 1
Filename F:\Converted Flac\01 Have Love.wav
Pre-gap length 0:00:02.00
Peak level 99.9 %
Extraction speed 3.2 X
Track quality 100.0 %
Test CRC AC092105
Copy CRC AC092105
Track not present in AccurateRip database
Copy OK
Track 2
Filename F:\Converted Flac\02 Will You Be Mine.wav
Peak level 99.9 %
Extraction speed 3.5 X
Track quality 100.0 %
Test CRC 078A2589
Copy CRC 078A2589
Track not present in AccurateRip database
Copy OK
Track 3
Filename F:\Converted Flac\03 Lay it on Me.wav
Pre-gap length 0:00:00.80
Peak level 99.9 %
Extraction speed 3.7 X
Track quality 100.0 %
Test CRC D8E1A487
Copy CRC D8E1A487
Track not present in AccurateRip database
Copy OK
Track 4
Filename F:\Converted Flac\04 Long Way to Fall.wav
Pre-gap length 0:00:01.77
Peak level 99.9 %
Extraction speed 3.9 X
Track quality 100.0 %
Test CRC 9490F4AF
Copy CRC 9490F4AF
Track not present in AccurateRip database
Copy OK
Track 5
Filename F:\Converted Flac\05 Play to Win.wav
Pre-gap length 0:00:01.80
Peak level 99.9 %
Extraction speed 4.2 X
Track quality 100.0 %
Test CRC D6C24C23
Copy CRC D6C24C23
Track not present in AccurateRip database
Copy OK
Track 6
Filename F:\Converted Flac\06 People Keep Talking.wav
Pre-gap length 0:00:01.92
Peak level 99.9 %
Extraction speed 4.4 X
Track quality 100.0 %
Test CRC AC8A6E86
Copy CRC AC8A6E86
Track not present in AccurateRip database
Copy OK
Track 7
Filename F:\Converted Flac\07 Always.wav
Pre-gap length 0:00:02.80
Peak level 99.8 %
Extraction speed 4.6 X
Track quality 100.0 %
Test CRC D98E12E8
Copy CRC D98E12E8
Track not present in AccurateRip database
Copy OK
Track 8
Filename F:\Converted Flac\08 I Just Want More.wav
Pre-gap length 0:00:00.86
Peak level 99.0 %
Extraction speed 4.9 X
Track quality 100.0 %
Test CRC 5A21BBB6
Copy CRC 5A21BBB6
Track not present in AccurateRip database
Copy OK
Track 9
Filename F:\Converted Flac\09 The Clown.wav
Pre-gap length 0:00:01.80
Peak level 99.8 %
Extraction speed 4.9 X
Track quality 100.0 %
Test CRC 3088281D
Copy CRC 3088281D
Track not present in AccurateRip database
Copy OK
Track 10
Filename F:\Converted Flac\10 Broken Toys.wav
Pre-gap length 0:00:02.80
Peak level 99.9 %
Extraction speed 5.3 X
Track quality 100.0 %
Test CRC 1E1B5430
Copy CRC 1E1B5430
Track not present in AccurateRip database
Copy OK
Track 11
Filename F:\Converted Flac\11 One Woman Army.wav
Peak level 99.9 %
Extraction speed 5.3 X
Track quality 100.0 %
Test CRC 7DDD8BA1
Copy CRC 7DDD8BA1
Track not present in AccurateRip database
Copy OK
Track 12
Filename F:\Converted Flac\12 Coming Home.wav
Peak level 99.9 %
Extraction speed 5.3 X
Track quality 100.0 %
Test CRC AA196988
Copy CRC AA196988
Track not present in AccurateRip database
Copy OK
Track 13
Filename F:\Converted Flac\13 Now or Never.wav
Peak level 99.9 %
Extraction speed 5.7 X
Track quality 100.0 %
Test CRC 191A954D
Copy CRC 191A954D
Track not present in AccurateRip database
Copy OK
None of the tracks are present in the AccurateRip database
No errors occurred
End of status report
==== Log checksum 420DC1048073EA547F1EF2A7004906032F7F404D7CB74A2F9690844AF1D915A8 ====
 
Содержание индексной карты (.CUE)
REM GENRE Funk
REM DATE 2014
REM DISCID BD0D080D
REM COMMENT "ExactAudioCopy v1.0b3"
CATALOG 5050580611863
PERFORMER "Smoove & Turrell"
TITLE "Broken Toys"
FILE "01 Have Love.wav" WAVE
TRACK 01 AUDIO
TITLE "Have Love"
PERFORMER "Smoove & Turrell"
INDEX 01 00:00:00
FILE "02 Will You Be Mine.wav" WAVE
TRACK 02 AUDIO
TITLE "Will You Be Mine"
PERFORMER "Smoove & Turrell"
INDEX 01 00:00:00
TRACK 03 AUDIO
TITLE "Lay it on Me"
PERFORMER "Smoove & Turrell"
INDEX 00 04:41:11
FILE "03 Lay it on Me.wav" WAVE
INDEX 01 00:00:00
TRACK 04 AUDIO
TITLE "Long Way to Fall"
PERFORMER "Smoove & Turrell"
INDEX 00 03:22:52
FILE "04 Long Way to Fall.wav" WAVE
INDEX 01 00:00:00
TRACK 05 AUDIO
TITLE "Play to Win"
PERFORMER "Smoove & Turrell"
INDEX 00 03:19:11
FILE "05 Play to Win.wav" WAVE
INDEX 01 00:00:00
TRACK 06 AUDIO
TITLE "People Keep Talking"
PERFORMER "Smoove & Turrell"
INDEX 00 03:54:06
FILE "06 People Keep Talking.wav" WAVE
INDEX 01 00:00:00
TRACK 07 AUDIO
TITLE "Always"
PERFORMER "Smoove & Turrell"
INDEX 00 04:08:56
FILE "07 Always.wav" WAVE
INDEX 01 00:00:00
TRACK 08 AUDIO
TITLE "I Just Want More"
PERFORMER "Smoove & Turrell"
INDEX 00 03:59:44
FILE "08 I Just Want More.wav" WAVE
INDEX 01 00:00:00
TRACK 09 AUDIO
TITLE "The Clown"
PERFORMER "Smoove & Turrell"
INDEX 00 05:10:54
FILE "09 The Clown.wav" WAVE
INDEX 01 00:00:00
TRACK 10 AUDIO
TITLE "Broken Toys"
PERFORMER "Smoove & Turrell"
INDEX 00 03:33:11
FILE "10 Broken Toys.wav" WAVE
INDEX 01 00:00:00
FILE "11 One Woman Army.wav" WAVE
TRACK 11 AUDIO
TITLE "One Woman Army"
PERFORMER "Smoove & Turrell"
INDEX 01 00:00:00
FILE "12 Coming Home.wav" WAVE
TRACK 12 AUDIO
TITLE "Coming Home"
PERFORMER "Smoove & Turrell"
INDEX 01 00:00:00
FILE "13 Now or Never.wav" WAVE
TRACK 13 AUDIO
TITLE "Now or Never"
PERFORMER "Smoove & Turrell"
INDEX 01 00:00:00
 
Об альбоме (сборнике)
Following a two year gap since their last release, northern funk duo Smoove and Turrell return with their third album, ‘Broken Toys’. Having supported disco legends Nile Rogers & Chic and Motown hit-makers Martha and the Vandellas since 2012’s ‘Eccentric Audio’, there has been a lot of hype surrounding this album and it does not fail to deliver.
Smoove and Turrell have become renowned for their array of blues, jazz, funk & soul tracks and married with the sparkling pop and disco influenced floor stompers on ‘Broken Toys’, Turrell’s sleek, soulful vocals and Smoove’s funky, northern soul production, this album is a delight from start to finish. Opening track ‘Have Love’ immediately showcases the albums toe-tappingly catchy disco beats and laced with some memorable trumpets, we are instantly thrust into a 1960’s soul soiree.
The upbeat and brass-heavy ‘Play To Win’ is a summery sounding jaunt with an occasional smattering of the duo’s trademark funky keys and it stands out as one of the album’s more dancier offerings along with ‘I Just Want More’ which exemplifies the duo’s disco sound with a wealth of funk guitars and a body moving bassline making it easy to see why this was chosen as the first double A side single to be released from the album alongside ‘Lay It On Me’.
The title track, ‘Broken Toys’ provides a smooth jazz-inspired alternative to the disco/soul sound that drives this album along and it arrives as a pleasant change. Offering a more minimalistic and bass heavy sound, the track would not find itself out of place on the soundtrack of a contemporary art film with the repetitive lyrics ‘Broken toys for adult boys’ providing a haunting outro.
‘Always’ is another track that offers an alternative to the disco dancefloor stompers that fill this album and slows the pace down to a pleasant stroll, whilst showcasing Turrell’s passionate and emotionally stirring vocals as he describes the tenderness of a relationship exhibited in the lyrics “Every single time that you need a man and a friend, always, I’ll be there.”
With their music having been featured on TV shows as wide spread as Match of the Day and Strictly Come Dancing as well as in the video game The Crew, Smoove and Turrell have already built up something of a cult following across the UK and once the music buying public get their hands on this little gem, their meteoric rise as the kings of northern funk is sure to escalate at breakneck speed.
Matt Tarr

Не забываем нажать - сказать "Спасибо"
Приватный:
Нет (DHT включён)
Размер:
369.34 Мб (387,277,873 байт) » файлов: 20
Участники:
0 раздают, 0 качают (0 участников всего)
Внешние участники:
7 раздают, 2 качают (9 участников всего) [ Обновить ]
Есть вопросы - пишите личное сообщение пользователю M0p94ok.
09:57
77
Нет комментариев. Ваш будет первым!