Вы используете незарегистрированную версию компонента "Вкладки"!

Поиск

(Noise Free Jazz Rock) Ground Zero - Null & Void - 1995, [Tzadik TZ 7204], FLAC (image+.cue), lossless

Треклист:
Ground Zero - Null & Void
Жанр: Noise Free Jazz
Год выпуска диска: 1995
Производитель диска: US
Аудио кодек: FLAC
Тип рипа: image+.cue
Битрейт аудио: lossless
Продолжительность: 00:48:27
Трэклист:
1 Null & Void: Introduction 0:41
2 Null & Void: TV-Q Missile 7:20
3 International 1 8:55
4 Null & Void: Left Side 1:32
5 Movie 1 5:39
6 Null & Void: Right Side 1:30
7 Movie 2 9:01
8 International 2 9:45
Mandolin [Bandolim] - Akioka Oh*
Percussion - Takara Kumiko*
9 Null & Void: Continued 3:53
Доп. информация:
 
Log
EAC Auslese-Logdatei vom 11. Juli 2006, 14:12 fьr CD
Ground Zero / Null & Void
Benutztes Laufwerk : HL-DT-STDVDRAM GSA-4163B Adapter: 2 ID: 0
Lesemodus : Sicher mit KEINEM C2, Accurate Stream, Puffer abgeschaltet
Leseoffset Korrektur : 667
Ьberlesen in das Lead-In und Lead-Out : Nein
Benutztes Ausgabeformat : D:\Musik\Monkey's Audio\MAC.exe (Monkey's Audio Verlustloser Komprimierer)
Extra High Lossless Compression
Andere Einstellungen :
Fьlle fehlende Offsetsample mit Stille auf : Ja
Lцsche fьhrende und nachfolgende stille Blцcke : Nein
Installierte externe ASPI Schnittstelle
Bereichsstatus und Fehler
Gewдhlter Bereich
Dateiname G:\Wave Temp\Ground Zero - Null & Void\Ground Zero - Null & Void.wav
Spitzenpegel 99.1 %
Bereichsqualitдt 100.0 %
CRC 736AC4D6
Kopie OK
Keine Fehler aufgetreten
Ende des Statusreports
 
Сводка Accuraterip
Примечание: изначально рип был сделан с нулевым оффсетом, что было мною исправлено при помощи программы cuetools.
[Verification date: 12.12.2009 1:15:29]
[Disc ID: 000f4559-00732a93-6e0b5a09]
Pregap length 00:00:55.
Offset applied: 3
Track [ CRC ] Status
01 [5599cd07] (02/04) Accurately ripped as in pressing(s) #2
02 [fb1b5241] (02/02) Accurately ripped as in pressing(s) #1
03 [24dc9eda] (02/04) Accurately ripped as in pressing(s) #2
04 [8388ba23] (02/02) Accurately ripped as in pressing(s) #1
05 [3eb557e4] (02/02) Accurately ripped as in pressing(s) #1
06 [8b575ef0] (02/02) Accurately ripped as in pressing(s) #1
07 [1a48782c] (02/02) Accurately ripped as in pressing(s) #1
08 [8577422c] (02/02) Accurately ripped as in pressing(s) #1
09 [d2af0fa8] (02/04) Accurately ripped as in pressing(s) #2
Offsetted by 664:
01 [baf800ff] (02/04) Accurately ripped as in pressing(s) #1
02 [84e75579] (00/02) No matches
03 [9abe157a] (02/04) Accurately ripped as in pressing(s) #1
04 [0c83919b] (00/02) No matches
05 [4c99e38c] (00/02) No matches
06 [8be736c0] (00/02) No matches
07 [fa77132c] (02/02) Partial match to pressing(s) #1
08 [95cb3754] (00/02) No matches
09 [5bd443f0] (02/04) Accurately ripped as in pressing(s) #1
Track [ CRC32 ] [W/O NULL]
-- [A1CECC98] [446206F8]
01 [731B17A3] [A9BF6B1D]
02 [49F16D98] [9F08C210]
03 [67DF408D] [F0312D9D]
04 [0325F5C0] [E5D35FB1]
05 [BC47CEC8] [83476F16]
06 [3D556A67] [FE218087]
07 [4956E4A6] [F9B96334]
08 [19284A87] [86940680]
09 [43D2A6A5] [F3A27D08]
Any questions -> support@pro-jazz.com. По всем вопросам пишите -> support@pro-jazz.com
17:13
142
Нет комментариев. Ваш будет первым!