Вы используете незарегистрированную версию компонента "Вкладки"!

Поиск

(Noise, Free Improvisation) Borbetomagus & Voice Crack - Concerto for Cracked Everyday Electronics & Chamber Orchestra - 1997, FLAC (tracks+.cue), lossless

Треклист:
Borbetomagus & Voice Crack
Жанр: Noise, Free Improvisation
Год выпуска диска: 1997
Производитель диска: Agaric Ag 94, Uhlang Produktion UP 09, V-Records V4
Аудио кодек: FLAC
Тип рипа: tracks+.cue
Битрейт аудио: lossless
Источник: what.cd (Cohelmec)
Продолжительность: 39:29
Треклист:
01 Untitled 19:41
02 Untitled 6:26
03 Untitled 13:23
Electronics [Cracked Everyday] - Andy Guhl , Norbert Möslang
Guitar - Donald Miller
Rattle, Electronics - Knut Remond
Saxophone - Don Dietrich , Jim Sauter
Other [Liner Notes] - Neil Strauss
Engineer [Additional] - Gary Soloman
Recorded By - James McLean , John Siket
Artwork By [Cover] - Alex Hanimann
Recorded live at Carnegie Recital Hall, New York on May 26, 1994
Special thanks to Bruce Gallanter
Mastered at Creative Music Projects Redwood, New York
 
CUE
REM GENRE Unclassifiable
REM DATE 1994
REM DISCID 22094103
REM COMMENT "ExactAudioCopy v0.99pb5"
PERFORMER "Borbetomagus & Voice Crack"
TITLE "Concerto for Cracked Everyday-Electronics and Chamber Orchestra"
FILE "01. Untitled.wav" WAVE
TRACK 01 AUDIO
TITLE "Untitled"
PERFORMER "Borbetomagus & Voice Crack"
FLAGS DCP
INDEX 01 00:00:00
TRACK 02 AUDIO
TITLE "Untitled"
PERFORMER "Borbetomagus & Voice Crack"
FLAGS DCP
INDEX 00 19:37:05
FILE "02. Untitled.wav" WAVE
INDEX 01 00:00:00
TRACK 03 AUDIO
TITLE "Untitled"
PERFORMER "Borbetomagus & Voice Crack"
FLAGS DCP
INDEX 00 06:21:09
FILE "03. Untitled.wav" WAVE
INDEX 01 00:00:00
 
EAC extraction logfile
Exact Audio Copy V0.99 prebeta 5 from 4. May 2009
EAC extraction logfile from 3. May 2010, 12:32
Borbetomagus & Voice Crack / Concerto for Cracked Everyday-Electronics and Chamber Orchestra
Used drive : MATSHITABD-RE UJ-225S Adapter: 0 ID: 0
Read mode : Secure
Utilize accurate stream : Yes
Defeat audio cache : Yes
Make use of C2 pointers : No
Read offset correction : 102
Overread into Lead-In and Lead-Out : No
Fill up missing offset samples with silence : Yes
Delete leading and trailing silent blocks : No
Null samples used in CRC calculations : Yes
Used interface : Native Win32 interface for Win NT & 2000
Gap handling : Appended to previous track
Used output format : User Defined Encoder
Selected bitrate : 768 kBit/s
Quality : High
Add ID3 tag : No
Command line compressor : C:\Users\Derek\Downloads\eac-0.99pb5\FLAC\FLAC.EXE
Additional command line options : -6 -V -T "ARTIST=%a" -T "TITLE=%t" -T "ALBUM=%g" -T "DATE=%y" -T "TRACKNUMBER=%n" -T "GENRE=%m" -T "COMMENT=%e" %s -o %d
TOC of the extracted CD
Track | Start | Length | Start sector | End sector
---------------------------------------------------------
1 | 0:00.00 | 19:40.44 | 0 | 88543
2 | 19:40.44 | 6:25.53 | 88544 | 117471
3 | 26:06.22 | 13:22.73 | 117472 | 177694
Track 1
Filename C:\FLAC\Borbetomagus\Concerto\01. Untitled.wav
Pre-gap length 0:00:02.00
Peak level 100.0 %
Track quality 99.9 %
Test CRC 1A7FA399
Copy CRC 1A7FA399
Track not present in AccurateRip database
Copy OK
Track 2
Filename C:\FLAC\Borbetomagus\Concerto\02. Untitled.wav
Pre-gap length 0:00:03.52
Peak level 99.6 %
Track quality 100.0 %
Test CRC BE9ECAD8
Copy CRC BE9ECAD8
Track not present in AccurateRip database
Copy OK
Track 3
Filename C:\FLAC\Borbetomagus\Concerto\03. Untitled.wav
Pre-gap length 0:00:04.58
Peak level 100.0 %
Track quality 100.0 %
Test CRC 09A5F558
Copy CRC 09A5F558
Track not present in AccurateRip database
Copy OK
None of the tracks are present in the AccurateRip database
No errors occurred
End of status report
Any questions -> support@pro-jazz.com. По всем вопросам пишите -> support@pro-jazz.com
02:25
157
Нет комментариев. Ваш будет первым!