Вы используете незарегистрированную версию компонента "Вкладки"!

Поиск

(Noise / Experimental / Free Improvisation) Text Of Light (Alan Licht, Lee Ranaldo, Ulrich Krieger, William Hooker, DJ Olive & Christian Marclay) - Text Of Light - 2004, FLAC (tracks+.cue) lossless

(Noise / Experimental / Free Improvisation) Text Of Light (Alan Licht, Lee Ranaldo, Ulrich Krieger, William Hooker, DJ Olive & Christian Marclay) - Text Of Light - 2004, FLAC (tracks+.cue) lossless
Треклист:
Text Of Light / Text Of Light
Жанр: Noise / Experimental / Free Improvisation
Страна-производитель диска: US
Год издания диска: 2004
Издатель (лейбл): Starlight Furniture Co.
Номер по каталогу: *24
Годы записи диска: 2001-2002
Страна: US
Аудио кодек: FLAC (*.flac)
Тип рипа: tracks+.cue
Битрейт аудио: lossless
Продолжительность: 1:10:31
Источник (релизер): What.CD (relised by zen0)
Наличие сканов в содержимом раздачи: нет
Треклист:
01 Quintet (Alan Licht / Lee Ranaldo / Ulrich Krieger / William Hooker / DJ Olive): 052202 Tonic 35:15
02 Trio (Alan Licht / Lee Ranaldo / DJ Olive): 091502 Anthology Film Archives 26:10
03 Quartet (Alan Licht / Lee Ranaldo / William Hooker / Christian Marclay): 082301 Knitting Factory 9:07
Доп. информация:
Drums, Percussion - William Hooker (tracks: 1, 3)
Effects [Turntables] - Christian Marclay (tracks: 3) , DJ Olive (tracks: 1, 2)
Guitar - Alan Licht , Lee Ranaldo
Saxophone, Electronics [Sax-tronics] - Ulrich Krieger (tracks: 1)
1 & 3 Rec by Eric Mauer
2 by LR
All mixed/mastered at Echo Canyon NYC by Lee & Alan with Aaron Mullan 2003-4.
This work is not the result of any collaboration with Stan Brakhage. Text of Light is an improvised music group, and also the name of a 1974 Brakhage film. Text of Light has performed with this film, and other Brakhage films, screening behind them, but are not creating a "Brakhage soundtrack" or a "potential Brakhage soundtrack." The music on this CD comes from an ongoing series of mixed media performances, drawing on Stan's work for inspiration.






 
CUE sheet
REM GENRE Improv
REM DATE 2004
REM DISCID 25108703
REM COMMENT "ExactAudioCopy v0.99pb4"
PERFORMER "Text Of Light"
TITLE "Text Of Light"
FILE "01. Text of Light - 052202 Tonic.flac" WAVE
TRACK 01 AUDIO
TITLE "052202 Tonic"
PERFORMER "Text Of Light"
INDEX 01 00:00:00
TRACK 02 AUDIO
TITLE "091502 Anthology Film Archives"
PERFORMER "Text Of Light"
INDEX 00 35:14:17
FILE "02. Text of Light - 091502 Anthology Film Archives.flac" WAVE
INDEX 01 00:00:00
TRACK 03 AUDIO
TITLE "082301 Knitting Factory"
PERFORMER "Text Of Light"
INDEX 00 26:08:40
FILE "03. Text of Light - 082301 Knitting Factory.flac" WAVE
INDEX 01 00:00:00
 
Extraction log
Exact Audio Copy V0.99 prebeta 4 from 23. January 2008
EAC extraction logfile from 2. September 2009, 1:42
Text Of Light / Text Of Light
Used drive : PIONEER DVD-RW DVR-111L Adapter: 7 ID: 1
Read mode : Secure
Utilize accurate stream : Yes
Defeat audio cache : Yes
Make use of C2 pointers : No
Read offset correction : 48
Overread into Lead-In and Lead-Out : No
Fill up missing offset samples with silence : Yes
Delete leading and trailing silent blocks : No
Null samples used in CRC calculations : Yes
Used interface : Installed external ASPI interface
Gap handling : Appended to previous track
Used output format : User Defined Encoder
Selected bitrate : 768 kBit/s
Quality : High
Add ID3 tag : No
Command line compressor : C:\Program Files\Exact Audio Copy\FLAC\FLAC.EXE
Additional command line options : -8 -V -T "ARTIST=%a" -T "TITLE=%t" -T "ALBUM=%g" -T "DATE=%y" -T "TRACKNUMBER=%n" -T "GENRE=%m" -T "COMMENT=EAC FLAC -8" %s
TOC of the extracted CD
Track | Start | Length | Start sector | End sector
---------------------------------------------------------
1 | 0:00.00 | 35:15.03 | 0 | 158627
2 | 35:15.03 | 26:09.72 | 158628 | 276374
3 | 61:25.00 | 9:06.63 | 276375 | 317387
Track 1
Filename R:\rip\Text of Light - Text of Light (2004) [FLAC]\01 - [untitled].wav
Pre-gap length 0:00:02.00
Peak level 98.8 %
Track quality 100.0 %
Test CRC 77FF4A18
Copy CRC 77FF4A18
Accurately ripped (confidence 1) [06998FBA]
Copy OK
Track 2
Filename R:\rip\Text of Light - Text of Light (2004) [FLAC]\02 - [untitled].wav
Pre-gap length 0:00:00.61
Peak level 98.8 %
Track quality 99.9 %
Test CRC 788B49D3
Copy CRC 788B49D3
Accurately ripped (confidence 1) [70D2980A]
Copy OK
Track 3
Filename R:\rip\Text of Light - Text of Light (2004) [FLAC]\03 - [untitled].wav
Pre-gap length 0:00:01.32
Peak level 98.8 %
Track quality 100.0 %
Test CRC 04D1B66F
Copy CRC 04D1B66F
Accurately ripped (confidence 1) [2639A971]
Copy OK
All tracks accurately ripped
No errors occurred
End of status report
 
CUETools Accurate Rip test log
[CUETools log; Date: 23.02.2011 16:23:05; Version: 2.0.9]
[CTDB TOCID: tXN7cwmFFvdsp4lyI_lZCW1K83s-] disk not present in database.
[AccurateRip ID: 000b7b07-0024dd3e-25108703] found.
Track [ CRC ] Status
01 [06998fba] (3/3) Accurately ripped
02 [70d2980a] (3/3) Accurately ripped
03 [2639a971] (3/3) Accurately ripped
Track Peak [ CRC32 ] [W/O NULL] [ LOG ]
-- 98,8 [DA164908] [7A035DC0]
01 98,8 [77FF4A18] [1FFEAAF0] CRC32
02 98,8 [788B49D3] [D1E9F5E4] CRC32
03 98,8 [04D1B66F] [BB19C9D9] CRC32
 
auCDtect log
-----------------------
DON'T MODIFY THIS FILE
-----------------------
PERFORMER: auCDtect Task Manager, ver. 1.0.0 Stable build 1.0.0.0
Copyright (c) 2008, 2009 y-soft. All rights reserved
http://y-soft.110mb.com
ANALYZER: auCDtect: CD records authenticity detector, version 0.8.2
Copyright (c) 2004 Oleg Berngardt. All rights reserved.
Copyright (c) 2004 Alexander Djourik. All rights reserved.
FILE: 03. Text of Light - 082301 Knitting Factory.flac
Size: 56119901 Hash: E1AC6E02BF84D62A08BC8D23FCC6FC8F Accuracy: -m0
Conclusion: CDDA 100%
Signature: 09EB568F32432F67938B9010540A9BDDBCA1EF60
FILE: 02. Text of Light - 091502 Anthology Film Archives.flac
Size: 122855921 Hash: 45D2E17F1E86211C27351FBB857D127A Accuracy: -m0
Conclusion: CDDA 100%
Signature: 05A1FA863A3EFC63630AD7A5716A8900D17F0EC6
FILE: 01. Text of Light - 052202 Tonic.flac
Size: 207720229 Hash: 86DDAD93ED7D13FA8FF075F4A925ED53 Accuracy: -m0
Conclusion: CDDA 100%
Signature: 0A1D26762CDC095C82B732D52A51D0BC2403614B
Any questions -> support@pro-jazz.com. По всем вопросам пишите -> support@pro-jazz.com
09:04
173
Нет комментариев. Ваш будет первым!