Поиск

(New Orleans R&B, Funk, Soul) [CD] Allen Toussaint - From a Whisper to a Scream 1970 - 2006, FLAC (tracks+.cue), lossless

(New Orleans R&B, Funk, Soul) [CD] Allen Toussaint - From a Whisper to a Scream 1970 - 2006, FLAC (tracks+.cue), lossless
Треклист:
Allen Toussaint / From a Whisper to a Scream
Жанр: New Orleans R&B, Funk, Soul
Носитель: CD
Год издания: 2006
Аудиокодек: FLAC (*.flac)
Тип рипа: tracks+.cue
Битрейт аудио: lossless
Продолжительность: 00:37:28
Источник (релизер): frenchie4141
Наличие сканов в содержимом раздачи: нет
Треклист:
1. From A Whisper To A Scream
2. Chokin' Kind (Harlan Howard)
3. Sweet Touch Of Love
4. What Is Success
5. Working In The Coalmine (Lee Dorsey / Allen Toussaint)
6. Everything I Do Gonna Be Funky
7. Either
8. Louie
9. Cast Your Fate To The Wind (Vince Guaraldi / Carl Rowe)
10. Number Nine
11. Pickles
 
Лог создания рипа
Exact Audio Copy V0.99 prebeta 3 from 28. July 2007
EAC extraction logfile from 21. October 2010, 23:29
Allen Toussaint / From A Whisper To A Scream
Used drive : TSSTcorpDVD+-RW TS-L633C Adapter: 1 ID: 0
Read mode : Secure
Utilize accurate stream : Yes
Defeat audio cache : Yes
Make use of C2 pointers : No
Read offset correction : 6
Overread into Lead-In and Lead-Out : No
Fill up missing offset samples with silence : Yes
Delete leading and trailing silent blocks : No
Null samples used in CRC calculations : Yes
Used interface : Native Win32 interface for Win NT & 2000
Gap handling : Appended to previous track
Used output format : User Defined Encoder
Selected bitrate : 320 kBit/s
Quality : High
Add ID3 tag : No
Command line compressor : C:\Program Files (x86)\FLAC\flac.exe
Additional command line options : -V -8 -T "artist=%a" -T "title=%t" -T "album=%g" -T "date=%y" -T "tracknumber=%n" -T "genre=%m" %s
TOC of the extracted CD
Track | Start | Length | Start sector | End sector
---------------------------------------------------------
1 | 0:00.00 | 3:30.02 | 0 | 15751
2 | 3:30.02 | 3:23.38 | 15752 | 31014
3 | 6:53.40 | 3:18.10 | 31015 | 45874
4 | 10:11.50 | 3:34.70 | 45875 | 61994
5 | 13:46.45 | 3:13.17 | 61995 | 76486
6 | 16:59.62 | 3:11.10 | 76487 | 90821
7 | 20:10.72 | 2:54.48 | 90822 | 103919
8 | 23:05.45 | 3:04.42 | 103920 | 117761
9 | 26:10.12 | 3:21.00 | 117762 | 132836
10 | 29:31.12 | 3:29.70 | 132837 | 148581
11 | 33:01.07 | 4:27.08 | 148582 | 168614
Track 1
Filename C:\rips\FLAC\Allen Toussaint - From A Whisper To A Scream [1970]\01 - From A Whisper To A Scream.wav
Pre-gap length 0:00:02.00
Peak level 98.1 %
Track quality 100.0 %
Test CRC 21CB71FB
Copy CRC 21CB71FB
Accurately ripped (confidence 4) [B4A63A70]
Copy OK
Track 2
Filename C:\rips\FLAC\Allen Toussaint - From A Whisper To A Scream [1970]\02 - Chokin' Kind.wav
Pre-gap length 0:00:02.46
Peak level 99.3 %
Track quality 100.0 %
Test CRC 43C5DB37
Copy CRC 43C5DB37
Accurately ripped (confidence 4) [AF51F423]
Copy OK
Track 3
Filename C:\rips\FLAC\Allen Toussaint - From A Whisper To A Scream [1970]\03 - Sweet Touch Of Love.wav
Pre-gap length 0:00:02.20
Peak level 99.5 %
Track quality 100.0 %
Test CRC 1A9C04C0
Copy CRC 1A9C04C0
Accurately ripped (confidence 4) [BB149FC0]
Copy OK
Track 4
Filename C:\rips\FLAC\Allen Toussaint - From A Whisper To A Scream [1970]\04 - What Is Success.wav
Pre-gap length 0:00:02.30
Peak level 97.8 %
Track quality 100.0 %
Test CRC 380C1AA1
Copy CRC 380C1AA1
Accurately ripped (confidence 4) [87FF5508]
Copy OK
Track 5
Filename C:\rips\FLAC\Allen Toussaint - From A Whisper To A Scream [1970]\05 - Working In The Coalmine.wav
Pre-gap length 0:00:02.37
Peak level 100.0 %
Track quality 100.0 %
Test CRC 81656FD9
Copy CRC 81656FD9
Accurately ripped (confidence 4) [431B1A9B]
Copy OK
Track 6
Filename C:\rips\FLAC\Allen Toussaint - From A Whisper To A Scream [1970]\06 - Everything I Do Gonna Be Funky.wav
Pre-gap length 0:00:02.00
Peak level 99.1 %
Track quality 100.0 %
Test CRC 57A09F9F
Copy CRC 57A09F9F
Accurately ripped (confidence 4) [1BAE12F2]
Copy OK
Track 7
Filename C:\rips\FLAC\Allen Toussaint - From A Whisper To A Scream [1970]\07 - Either.wav
Pre-gap length 0:00:02.09
Peak level 99.3 %
Track quality 100.0 %
Test CRC E86169D0
Copy CRC E86169D0
Accurately ripped (confidence 4) [AADA1E81]
Copy OK
Track 8
Filename C:\rips\FLAC\Allen Toussaint - From A Whisper To A Scream [1970]\08 - Louie.wav
Pre-gap length 0:00:02.57
Peak level 99.1 %
Track quality 100.0 %
Test CRC DE21FE37
Copy CRC DE21FE37
Accurately ripped (confidence 4) [555C817F]
Copy OK
Track 9
Filename C:\rips\FLAC\Allen Toussaint - From A Whisper To A Scream [1970]\09 - Cast Your Fate To The Wind.wav
Pre-gap length 0:00:02.42
Peak level 97.2 %
Track quality 100.0 %
Test CRC 4C03650B
Copy CRC 4C03650B
Accurately ripped (confidence 4) [A29AA9DE]
Copy OK
Track 10
Filename C:\rips\FLAC\Allen Toussaint - From A Whisper To A Scream [1970]\10 - Number Nine.wav
Pre-gap length 0:00:02.49
Peak level 100.0 %
Track quality 100.0 %
Test CRC 568212A3
Copy CRC 568212A3
Accurately ripped (confidence 4) [123A3A96]
Copy OK
Track 11
Filename C:\rips\FLAC\Allen Toussaint - From A Whisper To A Scream [1970]\11 - Pickles.wav
Pre-gap length 0:00:01.49
Peak level 99.5 %
Track quality 100.0 %
Test CRC B45C73B6
Copy CRC B45C73B6
Accurately ripped (confidence 3) [2D4EC019]
Copy OK
All tracks accurately ripped
No errors occurred
End of status report
 
Содержание индексной карты (.CUE)
REM GENRE Soul
REM DATE 1970
REM DISCID 8008C80B
REM COMMENT "ExactAudioCopy v0.99pb3"
FILE "01 - From A Whisper To A Scream.wav" WAVE
TRACK 01 AUDIO
INDEX 01 00:00:00
TRACK 02 AUDIO
INDEX 00 03:27:42
FILE "02 - Chokin' Kind.wav" WAVE
INDEX 01 00:00:00
TRACK 03 AUDIO
INDEX 00 03:21:23
FILE "03 - Sweet Touch Of Love.wav" WAVE
INDEX 01 00:00:00
TRACK 04 AUDIO
INDEX 00 03:15:62
FILE "04 - What Is Success.wav" WAVE
INDEX 01 00:00:00
TRACK 05 AUDIO
INDEX 00 03:32:42
FILE "05 - Working In The Coalmine.wav" WAVE
INDEX 01 00:00:00
TRACK 06 AUDIO
INDEX 00 03:11:17
FILE "06 - Everything I Do Gonna Be Funky.wav" WAVE
INDEX 01 00:00:00
TRACK 07 AUDIO
INDEX 00 03:09:03
FILE "07 - Either.wav" WAVE
INDEX 01 00:00:00
TRACK 08 AUDIO
INDEX 00 02:52:05
FILE "08 - Louie.wav" WAVE
INDEX 01 00:00:00
TRACK 09 AUDIO
INDEX 00 03:02:10
FILE "09 - Cast Your Fate To The Wind.wav" WAVE
INDEX 01 00:00:00
TRACK 10 AUDIO
INDEX 00 03:18:38
FILE "10 - Number Nine.wav" WAVE
INDEX 01 00:00:00
TRACK 11 AUDIO
INDEX 00 03:28:33
FILE "11 - Pickles.wav" WAVE
INDEX 01 00:00:00
 
Об альбоме (сборнике)
 
Состав
Allen Toussaint (vocals, piano);
Mac Rebennack (guitar, organ);
Terry Kellman (guitar);
Earl Turbinton (alto saxophone);
Clyde Kerr (trumpet);
Ed Greene, Fred Staehle, John Boudreaux (drums);
Merry Clayton (background vocals).
Приватный:
Нет (DHT включён)
Размер:
228.45 Мб (239,545,567 байт) » файлов: 16
Участники:
0 раздают, 0 качают (0 участников всего)
Внешние участники:
5 раздают, 1 качают (6 участников всего) [ Обновить ]
No seeders - write a personal message to user M0p94ok. Нет сидеров - пишите личное сообщение пользователю M0p94ok.
08:39
108
Нет комментариев. Ваш будет первым!