Поиск

(New Orleans Jazz) VA - "New Orleans Stomp" Johnny Dodds On Brunswick & Vocalion 1926-27 - 2001, FLAC (tracks+.cue), lossless

(New Orleans Jazz) VA - "New Orleans Stomp" Johnny Dodds On Brunswick & Vocalion 1926-27 - 2001, FLAC (tracks+.cue), lossless
Треклист:
"New Orleans Stomp" Johnny Dodds On Brunswick & Vocalion 1926-27
Жанр: New Orleans Jazz
Страна-производитель диска: UK
Год издания: 2001
Издатель (лейбл): frog records
Номер по каталогу: DGF39
Аудиокодек: FLAC (*.flac)
Тип рипа: tracks+.cue
Битрейт аудио: lossless
Продолжительность: 73:30
Источник (релизер): демон, knttk
Наличие сканов в содержимом раздачи: да
 
Tracklist & discography
TEDDY PETERS
Acc. by Johnny Dodds (cl), unknown (p).
Chicago, March 11, 1926.
01. E2639W What A Man ! [Voc 1006]
EDMONIA HENDERSON
Acc. by Johnny Dodds (cl), Lovie Austin (p), Edmonia Henderson (vo).
Chicago, April 20, 1926.
02. E2880W Who's Gonna Do Your Lovin' (When You're Good Man's Gone Away) [Voc 1015]
03. E2882W Nobody Else Will Do [Voc 1015]
ERSKINE TATE'S VENDOME ORCHESTRA
Louis Armstrong, poss. James Tate (tp), Fayette Williams (tb), prob. Johnny Dodds (cl), Stump Evans (as, bar), Norval Morton (ts), Teddy Weatherford (p), Johnny St. Cyr (bj), John Hare (bb), Jimmy Bertrand (dm, wbd).
Chicago, May 28, 1926.
04. E3140 Static Strut [Voc 1027]
05. E3141 Stomp Off, Let's Go [Voc 1027]
06. E3142 Stomp Off, Let's Go [Voc 1027]
LIL'S HOT SHOTS
Louis Armstrong (cnt, vo), Kid Ory (tb), Johnny Dodds (cl), Lil Armstrong (p), Johnny St. Cry (bj).
Chicago, May 28, 1926.
07. E3156 Georgia Bo Bo [Voc 1037]
08. E3157 Drop That Sack [Voc 1037]
09. E3158 Drop That Sack [Voc 1037]
JOHNNY DODDS' TRIO
Johnny Dodds (cl), Lil Armstrong (p), Bud Scott (g).
Chicago, April 21, 1927.
10. C 775 San [Br 3574
11. C 776 Oh ! Lizzie (A Lover's Lament) [Br 3585]
12. C 777 Oh ! Lizzie [Br 3585]
13. C 779 Clarinet Wobble [Br 3574]
14. C 781 The New St. Louis Blues [Br 3585]
JOHNNY DODDS' BLACK BOTTOM STOMPERS
Louis Armstrong (cnt), Roy Palmer (tb), Johnny Dodds (cl), Barney Bigard (ts), Earl Hines (p), Bud Scott (bj), Baby Dodds (dm).
Chicago, April 22, 1927.
15. C 792 Weary Blues [Voc 15632]
16. C 794 New Orleans Stomp [Voc 15632]
17. C 796 Wild Man Blues [Br 3567]
18. C 797 Wild Man Blues [Br 3567]
19. C 798 Melancholy [Br 3567]
20. C 799 Melancholy [Br 3567]
JOHNNY DODDS' BLACK BOTTOM STOMPERS
George Mitchell, Natty Dominique (cnt), Kid Ory (tb), Johnny Dodds (cl), Charlie Alexander (p), Bud Scott (bj, vo), Baby Dodds (dm).
Chicago, October 8, 1927.
21. C 1237 Come On And Stomp, Stomp, Stomp [Br 3568]
22. C 1239 After You've Gone - v [Voc 1148 [Br 3568]
23. C 1241 After You've Gone [Br 3568]
24. C 1242 Joe Turner Blues [Br 3696]
25. C 1245 When Erastus Plays His Old Kazoo [Br 3996]
 
EAC extraction logfile
Exact Audio Copy V0.99 prebeta 4 from 23. January 2008
EAC extraction logfile from 8. December 2008, 21:02
Various Artists / New Orleans Stomp: Johnny Dodds on Brunwick & Vocalion, 1926-1927
Used drive : MATSHITADVD-RAM LF-P567 Adapter: 1 ID: 0
Read mode : Secure
Utilize accurate stream : Yes
Defeat audio cache : Yes
Make use of C2 pointers : No
Read offset correction : 102
Overread into Lead-In and Lead-Out : No
Fill up missing offset samples with silence : Yes
Delete leading and trailing silent blocks : No
Null samples used in CRC calculations : Yes
Used interface : Native Win32 interface for Win NT & 2000
Gap handling : Appended to previous track
Used output format : User Defined Encoder
Selected bitrate : 192 kBit/s
Quality : High
Add ID3 tag : Yes
Command line compressor : C:\Program Files\Exact Audio Copy\Flac\flac.exe
Additional command line options : -8 -A tukey(0.25) -A gauss(0.1875) -b 4096 -V -T "artist=%a" -T "title=%t" -T "album=%g" -T "date=%y" -T "tracknumber=%n" -T "genre=%m" %s --sector-align
TOC of the extracted CD
Track | Start | Length | Start sector | End sector
---------------------------------------------------------
1 | 0:00.00 | 2:46.40 | 0 | 12489
2 | 2:46.40 | 3:08.35 | 12490 | 26624
3 | 5:55.00 | 2:56.40 | 26625 | 39864
4 | 8:51.40 | 2:50.30 | 39865 | 52644
5 | 11:41.70 | 2:57.12 | 52645 | 65931
6 | 14:39.07 | 2:55.03 | 65932 | 79059
7 | 17:34.10 | 3:02.05 | 79060 | 92714
8 | 20:36.15 | 2:46.70 | 92715 | 105234
9 | 23:23.10 | 2:47.15 | 105235 | 117774
10 | 26:10.25 | 2:54.55 | 117775 | 130879
11 | 29:05.05 | 2:57.57 | 130880 | 144211
12 | 32:02.62 | 2:53.18 | 144212 | 157204
13 | 34:56.05 | 2:35.45 | 157205 | 168874
14 | 37:31.50 | 2:55.50 | 168875 | 182049
15 | 40:27.25 | 2:46.62 | 182050 | 194561
16 | 43:14.12 | 2:43.13 | 194562 | 206799
17 | 45:57.25 | 3:05.02 | 206800 | 220676
18 | 49:02.27 | 3:06.33 | 220677 | 234659
19 | 52:08.60 | 3:08.30 | 234660 | 248789
20 | 55:17.15 | 3:27.17 | 248790 | 264331
21 | 58:44.32 | 2:55.48 | 264332 | 277504
22 | 61:40.05 | 3:08.12 | 277505 | 291616
23 | 64:48.17 | 3:11.13 | 291617 | 305954
24 | 67:59.30 | 2:42.10 | 305955 | 318114
25 | 70:41.40 | 2:48.30 | 318115 | 330744
Track 1
Filename D:\flac\New Orleans Stomp- Johnny Dodds on Brunwick & Vocalion, 1926-1927\01 - [Various Artists] What a Man!.wav
Pre-gap length 0:00:02.00
Peak level 99.3 %
Track quality 100.0 %
Test CRC 2B8DFBE2
Copy CRC 2B8DFBE2
Copy OK
Track 2
Filename D:\flac\New Orleans Stomp- Johnny Dodds on Brunwick & Vocalion, 1926-1927\02 - [Various Artists] Who's Gonna Do Your Lovin'.wav
Peak level 95.8 %
Track quality 100.0 %
Test CRC DFD91B6F
Copy CRC DFD91B6F
Copy OK
Track 3
Filename D:\flac\New Orleans Stomp- Johnny Dodds on Brunwick & Vocalion, 1926-1927\03 - [Various Artists] Nobody Else Will Do.wav
Peak level 69.4 %
Track quality 100.0 %
Test CRC 94831E15
Copy CRC 94831E15
Copy OK
Track 4
Filename D:\flac\New Orleans Stomp- Johnny Dodds on Brunwick & Vocalion, 1926-1927\04 - [Various Artists] Static Strut.wav
Peak level 91.5 %
Track quality 100.0 %
Test CRC 817B1C4E
Copy CRC 817B1C4E
Copy OK
Track 5
Filename D:\flac\New Orleans Stomp- Johnny Dodds on Brunwick & Vocalion, 1926-1927\05 - [Various Artists] Stomp Off, Let's Go.wav
Peak level 90.4 %
Track quality 100.0 %
Test CRC ACFD15CA
Copy CRC ACFD15CA
Copy OK
Track 6
Filename D:\flac\New Orleans Stomp- Johnny Dodds on Brunwick & Vocalion, 1926-1927\06 - [Various Artists] Stomp Off, Let's Go (2).wav
Peak level 83.7 %
Track quality 100.0 %
Test CRC 491CB449
Copy CRC 491CB449
Copy OK
Track 7
Filename D:\flac\New Orleans Stomp- Johnny Dodds on Brunwick & Vocalion, 1926-1927\07 - [Various Artists] Georgia Bo Bo.wav
Peak level 76.9 %
Track quality 100.0 %
Test CRC 36F39357
Copy CRC 36F39357
Copy OK
Track 8
Filename D:\flac\New Orleans Stomp- Johnny Dodds on Brunwick & Vocalion, 1926-1927\08 - [Various Artists] Drop That Sack.wav
Peak level 76.0 %
Track quality 100.0 %
Test CRC 464A6D0D
Copy CRC 464A6D0D
Copy OK
Track 9
Filename D:\flac\New Orleans Stomp- Johnny Dodds on Brunwick & Vocalion, 1926-1927\09 - [Various Artists] Drop That Sack (2).wav
Peak level 86.1 %
Track quality 100.0 %
Test CRC CB293F52
Copy CRC CB293F52
Copy OK
Track 10
Filename D:\flac\New Orleans Stomp- Johnny Dodds on Brunwick & Vocalion, 1926-1927\10 - [Various Artists] San.wav
Peak level 78.6 %
Track quality 100.0 %
Test CRC 819FDB27
Copy CRC 819FDB27
Copy OK
Track 11
Filename D:\flac\New Orleans Stomp- Johnny Dodds on Brunwick & Vocalion, 1926-1927\11 - [Various Artists] Oh! Lizzie.wav
Peak level 64.3 %
Track quality 100.0 %
Test CRC D9DC3C9E
Copy CRC D9DC3C9E
Copy OK
Track 12
Filename D:\flac\New Orleans Stomp- Johnny Dodds on Brunwick & Vocalion, 1926-1927\12 - [Various Artists] Oh! Lizzie (2).wav
Peak level 82.8 %
Track quality 100.0 %
Test CRC B29CB0FF
Copy CRC B29CB0FF
Copy OK
Track 13
Filename D:\flac\New Orleans Stomp- Johnny Dodds on Brunwick & Vocalion, 1926-1927\13 - [Various Artists] Clarinet Wobble.wav
Pre-gap length 0:00:01.50
Peak level 76.3 %
Track quality 100.0 %
Test CRC ED5314A5
Copy CRC ED5314A5
Copy OK
Track 14
Filename D:\flac\New Orleans Stomp- Johnny Dodds on Brunwick & Vocalion, 1926-1927\14 - [Various Artists] The New St. Louis Blues.wav
Peak level 61.4 %
Track quality 99.9 %
Test CRC FE522B90
Copy CRC FE522B90
Copy OK
Track 15
Filename D:\flac\New Orleans Stomp- Johnny Dodds on Brunwick & Vocalion, 1926-1927\15 - [Various Artists] Weary Blues.wav
Peak level 80.6 %
Track quality 100.0 %
Test CRC 827DF4FC
Copy CRC 827DF4FC
Copy OK
Track 16
Filename D:\flac\New Orleans Stomp- Johnny Dodds on Brunwick & Vocalion, 1926-1927\16 - [Various Artists] New Orleans Stomp.wav
Peak level 89.5 %
Track quality 100.0 %
Test CRC 0C419A81
Copy CRC 0C419A81
Copy OK
Track 17
Filename D:\flac\New Orleans Stomp- Johnny Dodds on Brunwick & Vocalion, 1926-1927\17 - [Various Artists] Wild Man Blues.wav
Peak level 79.7 %
Track quality 100.0 %
Test CRC A45ABA1F
Copy CRC A45ABA1F
Copy OK
Track 18
Filename D:\flac\New Orleans Stomp- Johnny Dodds on Brunwick & Vocalion, 1926-1927\18 - [Various Artists] Wild Man Blues (2).wav
Peak level 81.2 %
Track quality 100.0 %
Test CRC 8BE6AA0B
Copy CRC 8BE6AA0B
Copy OK
Track 19
Filename D:\flac\New Orleans Stomp- Johnny Dodds on Brunwick & Vocalion, 1926-1927\19 - [Various Artists] Melancholy.wav
Peak level 92.7 %
Track quality 100.0 %
Test CRC EDC1CF07
Copy CRC EDC1CF07
Copy OK
Track 20
Filename D:\flac\New Orleans Stomp- Johnny Dodds on Brunwick & Vocalion, 1926-1927\20 - [Various Artists] Melancholy (2).wav
Peak level 77.8 %
Track quality 99.9 %
Test CRC 7E9D3C62
Copy CRC 7E9D3C62
Copy OK
Track 21
Filename D:\flac\New Orleans Stomp- Johnny Dodds on Brunwick & Vocalion, 1926-1927\21 - [Various Artists] Come on and Stomp, Stomp, Stomp.wav
Peak level 90.4 %
Track quality 99.9 %
Test CRC 7DAD0FFA
Copy CRC 7DAD0FFA
Copy OK
Track 22
Filename D:\flac\New Orleans Stomp- Johnny Dodds on Brunwick & Vocalion, 1926-1927\22 - [Various Artists] After You've Gone.wav
Peak level 77.3 %
Track quality 100.0 %
Test CRC C090DD65
Copy CRC C090DD65
Copy OK
Track 23
Filename D:\flac\New Orleans Stomp- Johnny Dodds on Brunwick & Vocalion, 1926-1927\23 - [Various Artists] After You've Gone (2).wav
Peak level 63.6 %
Track quality 100.0 %
Test CRC F1435F2F
Copy CRC F1435F2F
Copy OK
Track 24
Filename D:\flac\New Orleans Stomp- Johnny Dodds on Brunwick & Vocalion, 1926-1927\24 - [Various Artists] Joe Turner Blues.wav
Peak level 76.2 %
Track quality 100.0 %
Test CRC 4A551B22
Copy CRC 4A551B22
Copy OK
Track 25
Filename D:\flac\New Orleans Stomp- Johnny Dodds on Brunwick & Vocalion, 1926-1927\25 - [Various Artists] When Erastus Plays His Old Kazoo.wav
Peak level 80.5 %
Track quality 100.0 %
Test CRC 4DA9D50A
Copy CRC 4DA9D50A
Copy OK
No errors occurred
End of status report
 
.CUE sheet (corrected)
REM DISCID 6E113919
REM COMMENT "ExactAudioCopy v0.99pb4"
PERFORMER "Various Artists"
TITLE "New Orleans Stomp: Johnny Dodds on Brunwick & Vocalion, 1926-1927"
FILE "01 - What a Man!.wav" WAVE
TRACK 01 AUDIO
TITLE "What a Man!"
PERFORMER "Teddy Peters"
INDEX 01 00:00:00
FILE "02 - Who's Gonna Do Your Lovin'.wav" WAVE
TRACK 02 AUDIO
TITLE "Who's Gonna Do Your Lovin'"
PERFORMER "Edmonia Henderson"
INDEX 01 00:00:00
FILE "03 - Nobody Else Will Do.wav" WAVE
TRACK 03 AUDIO
TITLE "Nobody Else Will Do"
PERFORMER "Edmonia Henderson"
INDEX 01 00:00:00
FILE "04 - Static Strut.wav" WAVE
TRACK 04 AUDIO
TITLE "Static Strut"
PERFORMER "Erskine Tate's Vendome Orchestra"
INDEX 01 00:00:00
FILE "05 - Stomp Off, Let's Go.wav" WAVE
TRACK 05 AUDIO
TITLE "Stomp Off, Let's Go"
PERFORMER "Erskine Tate's Vendome Orchestra"
INDEX 01 00:00:00
FILE "06 - Stomp Off, Let's Go (2).wav" WAVE
TRACK 06 AUDIO
TITLE "Stomp Off, Let's Go (2)"
PERFORMER "Erskine Tate's Vendome Orchestra"
INDEX 01 00:00:00
FILE "07 - Georgia Bo Bo.wav" WAVE
TRACK 07 AUDIO
TITLE "Georgia Bo Bo"
PERFORMER "Lil's Hot Shots"
INDEX 01 00:00:00
FILE "08 - Drop That Sack.wav" WAVE
TRACK 08 AUDIO
TITLE "Drop That Sack"
PERFORMER "Lil's Hot Shots"
INDEX 01 00:00:00
FILE "09 - Drop That Sack (2).wav" WAVE
TRACK 09 AUDIO
TITLE "Drop That Sack (2)"
PERFORMER "Lil's Hot Shots"
INDEX 01 00:00:00
FILE "10 - San.wav" WAVE
TRACK 10 AUDIO
TITLE "San"
PERFORMER "Johnny Dodds' Trio"
INDEX 01 00:00:00
FILE "11 - Oh! Lizzie.wav" WAVE
TRACK 11 AUDIO
TITLE "Oh! Lizzie"
PERFORMER "Johnny Dodds' Trio"
INDEX 01 00:00:00
FILE "12 - Oh! Lizzie (2).wav" WAVE
TRACK 12 AUDIO
TITLE "Oh! Lizzie (2)"
PERFORMER "Johnny Dodds' Trio"
INDEX 01 00:00:00
TRACK 13 AUDIO
TITLE "Clarinet Wobble"
PERFORMER "Johnny Dodds' Trio"
INDEX 00 02:51:43
FILE "13 - Clarinet Wobble.wav" WAVE
INDEX 01 00:00:00
FILE "14 - The New St. Louis Blues.wav" WAVE
TRACK 14 AUDIO
TITLE "The New St. Louis Blues"
PERFORMER "Johnny Dodds' Trio"
INDEX 01 00:00:00
FILE "15 - Weary Blues.wav" WAVE
TRACK 15 AUDIO
TITLE "Weary Blues"
PERFORMER "Johnny Dodds' Black Bottom Stompers"
INDEX 01 00:00:00
FILE "16 - New Orleans Stomp.wav" WAVE
TRACK 16 AUDIO
TITLE "New Orleans Stomp"
PERFORMER "Johnny Dodds' Black Bottom Stompers"
INDEX 01 00:00:00
FILE "17 - Wild Man Blues.wav" WAVE
TRACK 17 AUDIO
TITLE "Wild Man Blues"
PERFORMER "Johnny Dodds' Black Bottom Stompers"
INDEX 01 00:00:00
FILE "18 - Wild Man Blues (2).wav" WAVE
TRACK 18 AUDIO
TITLE "Wild Man Blues (2)"
PERFORMER "Johnny Dodds' Black Bottom Stompers"
INDEX 01 00:00:00
FILE "19 - Melancholy.wav" WAVE
TRACK 19 AUDIO
TITLE "Melancholy"
PERFORMER "Johnny Dodds' Black Bottom Stompers"
INDEX 01 00:00:00
FILE "20 - Melancholy (2).wav" WAVE
TRACK 20 AUDIO
TITLE "Melancholy (2)"
PERFORMER "Johnny Dodds' Black Bottom Stompers"
INDEX 01 00:00:00
FILE "21 - Come on and Stomp, Stomp, Stomp.wav" WAVE
TRACK 21 AUDIO
TITLE "Come on and Stomp, Stomp, Stomp"
PERFORMER "Johnny Dodds' Black Bottom Stompers"
INDEX 01 00:00:00
FILE "22 - After You've Gone.wav" WAVE
TRACK 22 AUDIO
TITLE "After You've Gone"
PERFORMER "Johnny Dodds' Black Bottom Stompers"
INDEX 01 00:00:00
FILE "23 - After You've Gone (2).wav" WAVE
TRACK 23 AUDIO
TITLE "After You've Gone (2)"
PERFORMER "Johnny Dodds' Black Bottom Stompers"
INDEX 01 00:00:00
FILE "24 - Joe Turner Blues.wav" WAVE
TRACK 24 AUDIO
TITLE "Joe Turner Blues"
PERFORMER "Johnny Dodds' Black Bottom Stompers"
INDEX 01 00:00:00
FILE "25 - When Erastus Plays His Old Kazoo.wav" WAVE
TRACK 25 AUDIO
TITLE "When Erastus Plays His Old Kazoo"
PERFORMER "Johnny Dodds' Black Bottom Stompers"
INDEX 01 00:00:00
 
auCDtect log
-----------------------
DON'T MODIFY THIS FILE
-----------------------
PERFORMER: auCDtect Task Manager, ver. 1.5.1RC3 build 1.5.1.4
Copyright (c) 2008-2010 y-soft. All rights reserved
http://y-soft.org
ANALYZER: auCDtect: CD records authenticity detector, version 0.8.2
Copyright (c) 2004 Oleg Berngardt. All rights reserved.
Copyright (c) 2004 Alexander Djourik. All rights reserved.
FILE: 25 - When Erastus Plays His Old Kazoo.flac
Size: 6584722 Hash: E0B663436B2F090ADDAFF8B5D01E1F4F Accuracy: -m0
Conclusion: CDDA 100%
Signature: 69ECE793BDEB2E50C83E979403DD76E14EDD7BC2
FILE: 24 - Joe Turner Blues.flac
Size: 6709325 Hash: 569016E28B40C9A2A4E4700103C193C7 Accuracy: -m0
Conclusion: CDDA 100%
Signature: 11C72B9E83017934B89747D26DB842CD46783EB3
FILE: 23 - After You've Gone (2).flac
Size: 7056133 Hash: 8F73714EA605A4249F9720DA4CD88BFA Accuracy: -m0
Conclusion: CDDA 100%
Signature: 6DB49ADCB8DE55F0863CF5F01FB42BF5582C9C99
FILE: 22 - After You've Gone.flac
Size: 7146125 Hash: 32871700C18F1F11217B7F032E19210D Accuracy: -m0
Conclusion: CDDA 100%
Signature: FA20E387C849893963BF44E25F3679A14B4D1D2B
FILE: 21 - Come on and Stomp, Stomp, Stomp.flac
Size: 7032988 Hash: 525386650BF607AB31D91171E3DD9FDF Accuracy: -m0
Conclusion: CDDA 100%
Signature: DA086F02CE7B2633B172CEEC3F523A19261413D0
FILE: 20 - Melancholy (2).flac
Size: 8316657 Hash: E98931DCBF63711F2D5B875BD76B2411 Accuracy: -m0
Conclusion: CDDA 85%
Signature: 2970FC9D6D085FA746B0DD8ABE2F636ECE743DA7
FILE: 19 - Melancholy.flac
Size: 7157206 Hash: 103A1BC7887185DF82EFDACFB869B8B1 Accuracy: -m0
Conclusion: MPEG 80%
Signature: 93D76AEFDB1E65EB7E1584206E40F5C64F009030
FILE: 18 - Wild Man Blues (2).flac
Size: 7342251 Hash: ED009324DB19AA45BE3E30C2EF9CD1FC Accuracy: -m0
Conclusion: CDDA 100%
Signature: A89497AB6F99CA8B6F58EA933D3219DCA0DB0FDF
FILE: 17 - Wild Man Blues.flac
Size: 6959052 Hash: EC90E970A7B4319E7453A55C32DEE237 Accuracy: -m0
Conclusion: CDDA 100%
Signature: 10B54798536F9AC2D5DC69403DF1BF74CB06E2E3
FILE: 16 - New Orleans Stomp.flac
Size: 6325430 Hash: B92D02847C61637088BC660AAD1F0060 Accuracy: -m0
Conclusion: CDDA 43%
Signature: F87B4B4B8FF5553C1DFAD9A0CBC3E3E04F237828
FILE: 15 - Weary Blues.flac
Size: 6539867 Hash: 678A0FD6FB40B8539EA2DB6E981248BB Accuracy: -m0
Conclusion: CDDA 43%
Signature: 21076DDA5FC5C862F30A01A5F34B2C8EC7CAD651
FILE: 14 - The New St. Louis Blues.flac
Size: 6981565 Hash: 12784B686F672672B56517EB1F0FCBA0 Accuracy: -m0
Conclusion: MPEG 90%
Signature: 0A43D43FAC2ED8326F9C659921AFD400029C1ED1
FILE: 13 - Clarinet Wobble.flac
Size: 6282871 Hash: 1579ADCE321F2B28D3A010420FA2CC49 Accuracy: -m0
Conclusion: MPEG 89%
Signature: 28A7E36094A74D5177FBD8D34752D57D6B1D4AB6
FILE: 12 - Oh! Lizzie (2).flac
Size: 6777948 Hash: 4C135AE528F094AB78B58B12793BF4FE Accuracy: -m0
Conclusion: MPEG 99%
Signature: 0D8902DECAF898B017374191E90AA539F0D316E4
FILE: 11 - Oh! Lizzie.flac
Size: 7696146 Hash: B23656E6012DE7DEF97E69396D6E4B68 Accuracy: -m0
Conclusion: CDDA 100%
Signature: 4DDC2F7D4DCFDC6D5B57C3426FECC3156FACAF3E
FILE: 10 - San.flac
Size: 6953493 Hash: 0F52A17852252E55293D5AE1C29431E5 Accuracy: -m0
Conclusion: MPEG 90%
Signature: 2942D70D7E3FF2582711FA9FB248056B4C9241F9
FILE: 09 - Drop That Sack (2).flac
Size: 6379563 Hash: CD38D2CB1E8002F70631AB94C45FB986 Accuracy: -m0
Conclusion: MPEG 89%
Signature: 7945461A473CF355135D1DE1AA6C218BE9235B83
FILE: 08 - Drop That Sack.flac
Size: 6653488 Hash: 22965A6195F546B8AC7FE7C7CE530AC6 Accuracy: -m0
Conclusion: MPEG 100%
Signature: 3BDAAB5C3D9925F8D90EC79FC30D739AB18F071E
FILE: 07 - Georgia Bo Bo.flac
Size: 7429365 Hash: FF7B655D070C0B9589DAF68104045262 Accuracy: -m0
Conclusion: MPEG 97%
Signature: EDFCD280488F5A9E1677F8E604A955A5183EECF5
FILE: 06 - Stomp Off, Let's Go (2).flac
Size: 8098924 Hash: B0A0500D665AB493E108FB59B78789DD Accuracy: -m0
Conclusion: CDDA 100%
Signature: 602FFC3E16BAF312879E5667B205F5499551F6D7
FILE: 05 - Stomp Off, Let's Go.flac
Size: 7018295 Hash: 6A6B0A243BC3C8521DD5F6BCBF28C90F Accuracy: -m0
Conclusion: MPEG 93%
Signature: 699CF8E731C9340587F8471C59BEFA0CF8BACB36
FILE: 04 - Static Strut.flac
Size: 7908325 Hash: 0FF24885F7B649B690A35FCB4C132990 Accuracy: -m0
Conclusion: CDDA 92%
Signature: 62249566454A892178858D2E68C5BFD0584BA2AB
FILE: 03 - Nobody Else Will Do.flac
Size: 6735719 Hash: 461257E2801ABEAF1185A220E0D9FF3D Accuracy: -m0
Conclusion: MPEG 100%
Signature: FC3D71465AB49265F26A859EDCB6C8A815228BA3
FILE: 02 - Who's Gonna Do Your Lovin'.flac
Size: 7245772 Hash: 3E382EEAA5378EE91CCF019976A99DD4 Accuracy: -m0
Conclusion: MPEG 93%
Signature: 971B43BE304E60D24C1EEEAFCD21C5E969B2AE19
FILE: 01 - What a Man!.flac
Size: 7007160 Hash: CC4705ACB299111BD015A64562F01545 Accuracy: -m0
Conclusion: CDDA 100%
Signature: 289DB48B0E4EA8ACE6C32E0F5BA852AE9B94F4F6
Диск был скачан ещё в феврале 2009-го года, сегодня увидел случайно, что раздача его имеет статус "сомнительно", решил предложить альтернативу.
auCDtect определил аж 11 треков как mpeg, но для записей 1926-1927 годов это неудивительно. Под спойлером - откорректированный .CUE файл, в раздаче - оба.
Приятного прослушивания!
МОИ РАЗДАЧИ
Download available for power users only.
08:34
424
Нет комментариев. Ваш будет первым!