Вы используете незарегистрированную версию компонента "Вкладки"!

Поиск

(New Orleans Jazz, Dixieland, Stride, Swing) [CD] Edmond Hall, James P. Johnson, Sidney De Paris, Vic Dickenson - The Complete Edmond Hall/James P. Johnson/Sidney De Paris/Vic Dickenson Blue Note Sessions (4CD) - 1985, FLAC (tracks+.cue), lossless

(New Orleans Jazz, Dixieland, Stride, Swing) [CD] Edmond Hall, James P. Johnson, Sidney De Paris, Vic Dickenson - The Complete Edmond Hall/James P. Johnson/Sidney De Paris/Vic Dickenson Blue Note Sessions (4CD) - 1985, FLAC (tracks+.cue), lossless
Треклист:
Edmond Hall, James P. Johnson, Sidney De Paris, Vic Dickenson
The Complete Edmond Hall / James P. Johnson / Sidney De Paris / Vic Dickenson Blue Note Sessions

Жанр: New Orleans Jazz, Dixieland, Stride, Swing | Носитель: CD
Год издания: 1985 | Издатель (лейбл): Mosaic Records | Номер по каталогу: MD4-109
Аудиокодек: FLAC (*.flac) | Тип рипа: tracks+.cue | Битрейт аудио: lossless
Продолжительность: 04:24:01 | Источник (релизер): ruskaval
Наличие сканов в содержимом раздачи: да 
 
 
Disc I (65:40)
Треклист:
01. Jammin' In Four (4:22)
02. Edmond Hall Blues (4:19)
03. Profoundly Blue (4:10)
04. Profoundly Blue #2 (4:20)
05. Celestial Express (3:56)
06. Rompin' In '44 (alt) (4:00)
07. Rompin' In '44 (4:01)
08. Blue Interval (4:18)
09. Smooth Sailing (alt) (3:33)
10. Smooth Sailing (3:48)
11. Seein' Red (4:15)
12. It's Been So Long (alt) (2:35)
13. I Can't Believe That You're In Love With Me (alt) (3:43)
14. I Can't Believe That You're In Love With Me (3:04)
15. Big City Blues (4:16)
16. It's Been So Long (3:10)
17. Steamin' And Beamin' (3:49)
 
 
Лог создания рипа
Exact Audio Copy V1.1 from 23. June 2015
EAC extraction logfile from 17. November 2017, 22:03
Edmond Hall, James P. Johnson, Sidney De Paris, Vic Dickenson / The Complete Edmond Hall, James P. Johnson, Sidney De Paris, Vic Dickenson Blue Note Sessions (CD1)
Used drive : TSSTcorpCDDVDW SE-208DB Adapter: 1 ID: 0
Read mode : Secure
Utilize accurate stream : Yes
Defeat audio cache : Yes
Make use of C2 pointers : No
Read offset correction : 6
Overread into Lead-In and Lead-Out : No
Fill up missing offset samples with silence : Yes
Delete leading and trailing silent blocks : No
Null samples used in CRC calculations : Yes
Used interface : Native Win32 interface for Win NT & 2000
Gap handling : Appended to previous track
Used output format : User Defined Encoder
Selected bitrate : 1024 kBit/s
Quality : High
Add ID3 tag : No
Command line compressor : C:\Program Files (x86)\FLAC Frontend\tools\flac.exe
Additional command line options : -8 -V -T "ARTIST=%artist%" -T "TITLE=%title%" -T "ALBUM=%albumtitle%" -T "DATE=%year%" -T "TRACKNUMBER=%tracknr%" -T "TOTALTRACKS=%numtracks%" -T "GENRE=%genre%" -T "ALBUMARTIST=%albumartist%" -T "ALBUM ARTIST=%albumartist%" -T "COMMENT=EAC Secure Mode, Test & Copy, AccurateRip, FLAC -8" %source%
TOC of the extracted CD
Track | Start | Length | Start sector | End sector
---------------------------------------------------------
1 | 0:00.00 | 4:22.12 | 0 | 19661
2 | 4:22.12 | 4:19.35 | 19662 | 39121
3 | 8:41.47 | 4:10.10 | 39122 | 57881
4 | 12:51.57 | 4:20.25 | 57882 | 77406
5 | 17:12.07 | 3:56.05 | 77407 | 95111
6 | 21:08.12 | 4:00.28 | 95112 | 113139
7 | 25:08.40 | 4:00.45 | 113140 | 131184
8 | 29:09.10 | 4:17.42 | 131185 | 150501
9 | 33:26.52 | 3:33.03 | 150502 | 166479
10 | 36:59.55 | 3:48.37 | 166480 | 183616
11 | 40:48.17 | 4:14.58 | 183617 | 202724
12 | 45:03.00 | 2:35.22 | 202725 | 214371
13 | 47:38.22 | 3:42.63 | 214372 | 231084
14 | 51:21.10 | 3:03.70 | 231085 | 244879
15 | 54:25.05 | 4:15.50 | 244880 | 264054
16 | 58:40.55 | 3:10.07 | 264055 | 278311
17 | 61:50.62 | 3:49.20 | 278312 | 295506
Track 1
Filename D:\_EAC\Edmond Hall, James P. Johnson, Sidney De Paris, Vic Dickenson - The Complete Blue Note Sessions (1985) [FLAC]\CD1\01 - Jammin' In Four.wav
Pre-gap length 0:00:02.00
Peak level 64.1 %
Extraction speed 1.1 X
Track quality 100.0 %
Test CRC 9F30B5EF
Copy CRC 9F30B5EF
Accurately ripped (confidence 3) [7C22EDB0] (AR v2)
Copy OK
Track 2
Filename D:\_EAC\Edmond Hall, James P. Johnson, Sidney De Paris, Vic Dickenson - The Complete Blue Note Sessions (1985) [FLAC]\CD1\02 - Edmond Hall Blues.wav
Peak level 58.2 %
Extraction speed 1.2 X
Track quality 100.0 %
Test CRC C62A3F74
Copy CRC C62A3F74
Accurately ripped (confidence 3) [D3CA998B] (AR v2)
Copy OK
Track 3
Filename D:\_EAC\Edmond Hall, James P. Johnson, Sidney De Paris, Vic Dickenson - The Complete Blue Note Sessions (1985) [FLAC]\CD1\03 - Profoundly Blue.wav
Peak level 57.3 %
Extraction speed 1.2 X
Track quality 100.0 %
Test CRC 43AE5772
Copy CRC 43AE5772
Accurately ripped (confidence 3) [366F0FD8] (AR v2)
Copy OK
Track 4
Filename D:\_EAC\Edmond Hall, James P. Johnson, Sidney De Paris, Vic Dickenson - The Complete Blue Note Sessions (1985) [FLAC]\CD1\04 - Profoundly Blue #2.wav
Peak level 64.5 %
Extraction speed 1.3 X
Track quality 100.0 %
Test CRC D342C79C
Copy CRC D342C79C
Accurately ripped (confidence 3) [16ADE119] (AR v2)
Copy OK
Track 5
Filename D:\_EAC\Edmond Hall, James P. Johnson, Sidney De Paris, Vic Dickenson - The Complete Blue Note Sessions (1985) [FLAC]\CD1\05 - Celestial Express.wav
Peak level 79.5 %
Extraction speed 1.2 X
Track quality 99.9 %
Test CRC 7355417A
Copy CRC 7355417A
Accurately ripped (confidence 3) [C512E830] (AR v2)
Copy OK
Track 6
Filename D:\_EAC\Edmond Hall, James P. Johnson, Sidney De Paris, Vic Dickenson - The Complete Blue Note Sessions (1985) [FLAC]\CD1\06 - Rompin' In '44 (alt).wav
Pre-gap length 0:00:00.01
Peak level 60.0 %
Extraction speed 1.2 X
Track quality 99.9 %
Test CRC A3075853
Copy CRC A3075853
Accurately ripped (confidence 3) [B2D02E93] (AR v2)
Copy OK
Track 7
Filename D:\_EAC\Edmond Hall, James P. Johnson, Sidney De Paris, Vic Dickenson - The Complete Blue Note Sessions (1985) [FLAC]\CD1\07 - Rompin' In '44.wav
Peak level 70.4 %
Extraction speed 1.4 X
Track quality 100.0 %
Test CRC 4D389DB7
Copy CRC 4D389DB7
Accurately ripped (confidence 3) [9080B4A6] (AR v2)
Copy OK
Track 8
Filename D:\_EAC\Edmond Hall, James P. Johnson, Sidney De Paris, Vic Dickenson - The Complete Blue Note Sessions (1985) [FLAC]\CD1\08 - Blue Interval.wav
Peak level 70.2 %
Extraction speed 1.5 X
Track quality 100.0 %
Test CRC 917060A7
Copy CRC 917060A7
Accurately ripped (confidence 3) [673290EF] (AR v2)
Copy OK
Track 9
Filename D:\_EAC\Edmond Hall, James P. Johnson, Sidney De Paris, Vic Dickenson - The Complete Blue Note Sessions (1985) [FLAC]\CD1\09 - Smooth Sailing (alt).wav
Peak level 60.1 %
Extraction speed 1.6 X
Track quality 100.0 %
Test CRC 8C5D8D60
Copy CRC 8C5D8D60
Accurately ripped (confidence 3) [C2F7F38A] (AR v2)
Copy OK
Track 10
Filename D:\_EAC\Edmond Hall, James P. Johnson, Sidney De Paris, Vic Dickenson - The Complete Blue Note Sessions (1985) [FLAC]\CD1\10 - Smooth Sailing.wav
Peak level 56.2 %
Extraction speed 1.6 X
Track quality 100.0 %
Test CRC 28DF4496
Copy CRC 28DF4496
Accurately ripped (confidence 3) [2FC4C609] (AR v2)
Copy OK
Track 11
Filename D:\_EAC\Edmond Hall, James P. Johnson, Sidney De Paris, Vic Dickenson - The Complete Blue Note Sessions (1985) [FLAC]\CD1\11 - Seein' Red.wav
Peak level 63.7 %
Extraction speed 1.7 X
Track quality 100.0 %
Test CRC AAFEF85B
Copy CRC AAFEF85B
Accurately ripped (confidence 3) [3967D202] (AR v2)
Copy OK
Track 12
Filename D:\_EAC\Edmond Hall, James P. Johnson, Sidney De Paris, Vic Dickenson - The Complete Blue Note Sessions (1985) [FLAC]\CD1\12 - It's Been So Long (alt).wav
Peak level 70.7 %
Extraction speed 1.6 X
Track quality 100.0 %
Test CRC 29480FED
Copy CRC 29480FED
Accurately ripped (confidence 3) [44C4E25E] (AR v2)
Copy OK
Track 13
Filename D:\_EAC\Edmond Hall, James P. Johnson, Sidney De Paris, Vic Dickenson - The Complete Blue Note Sessions (1985) [FLAC]\CD1\13 - I Can't Believe That You're In Love With Me (alt).wav
Peak level 60.8 %
Extraction speed 1.7 X
Track quality 100.0 %
Test CRC E27B1E46
Copy CRC E27B1E46
Accurately ripped (confidence 3) [A57D704E] (AR v2)
Copy OK
Track 14
Filename D:\_EAC\Edmond Hall, James P. Johnson, Sidney De Paris, Vic Dickenson - The Complete Blue Note Sessions (1985) [FLAC]\CD1\14 - I Can't Believe That You're In Love With Me.wav
Peak level 58.5 %
Extraction speed 1.4 X
Track quality 99.9 %
Test CRC 32C23B4F
Copy CRC 32C23B4F
Accurately ripped (confidence 3) [F1E5E41D] (AR v2)
Copy OK
Track 15
Filename D:\_EAC\Edmond Hall, James P. Johnson, Sidney De Paris, Vic Dickenson - The Complete Blue Note Sessions (1985) [FLAC]\CD1\15 - Big City Blues.wav
Peak level 65.6 %
Extraction speed 1.8 X
Track quality 100.0 %
Test CRC D8A38300
Copy CRC D8A38300
Accurately ripped (confidence 3) [B634CBA1] (AR v2)
Copy OK
Track 16
Filename D:\_EAC\Edmond Hall, James P. Johnson, Sidney De Paris, Vic Dickenson - The Complete Blue Note Sessions (1985) [FLAC]\CD1\16 - It's Been So Long.wav
Peak level 68.4 %
Extraction speed 1.8 X
Track quality 100.0 %
Test CRC FA627672
Copy CRC FA627672
Accurately ripped (confidence 3) [95D7A464] (AR v2)
Copy OK
Track 17
Filename D:\_EAC\Edmond Hall, James P. Johnson, Sidney De Paris, Vic Dickenson - The Complete Blue Note Sessions (1985) [FLAC]\CD1\17 - Steamin' And Beamin'.wav
Peak level 60.2 %
Extraction speed 1.8 X
Track quality 100.0 %
Test CRC CF04D66F
Copy CRC CF04D66F
Accurately ripped (confidence 3) [D4547E16] (AR v2)
Copy OK
All tracks accurately ripped
No errors occurred
End of status report
==== Log checksum 9E3DCC896252824CA1BD014F26E4112787EA12A202BD50EC16D7D44BFF56EC6D ====
 
Содержание индексной карты (.CUE)
REM GENRE Jazz
REM DATE 1985
REM DISCID C30F6411
REM COMMENT "ExactAudioCopy v1.1"
PERFORMER "Edmond Hall, James P. Johnson, Sidney De Paris, Vic Dickenson"
TITLE "The Complete Edmond Hall, James P. Johnson, Sidney De Paris, Vic Dickenson Blue Note Sessions (CD1)"
FILE "01 - Jammin' In Four.wav" WAVE
TRACK 01 AUDIO
TITLE "Jammin' In Four"
PERFORMER "Edmond Hall, James P. Johnson, Sidney De Paris, Vic Dickenson"
INDEX 01 00:00:00
FILE "02 - Edmond Hall Blues.wav" WAVE
TRACK 02 AUDIO
TITLE "Edmond Hall Blues"
PERFORMER "Edmond Hall, James P. Johnson, Sidney De Paris, Vic Dickenson"
INDEX 01 00:00:00
FILE "03 - Profoundly Blue.wav" WAVE
TRACK 03 AUDIO
TITLE "Profoundly Blue"
PERFORMER "Edmond Hall, James P. Johnson, Sidney De Paris, Vic Dickenson"
INDEX 01 00:00:00
FILE "04 - Profoundly Blue #2.wav" WAVE
TRACK 04 AUDIO
TITLE "Profoundly Blue #2"
PERFORMER "Edmond Hall, James P. Johnson, Sidney De Paris, Vic Dickenson"
INDEX 01 00:00:00
FILE "05 - Celestial Express.wav" WAVE
TRACK 05 AUDIO
TITLE "Celestial Express"
PERFORMER "Edmond Hall, James P. Johnson, Sidney De Paris, Vic Dickenson"
INDEX 01 00:00:00
TRACK 06 AUDIO
TITLE "Rompin' In '44 (alt)"
PERFORMER "Edmond Hall, James P. Johnson, Sidney De Paris, Vic Dickenson"
INDEX 00 03:56:04
FILE "06 - Rompin' In '44 (alt).wav" WAVE
INDEX 01 00:00:00
FILE "07 - Rompin' In '44.wav" WAVE
TRACK 07 AUDIO
TITLE "Rompin' In '44"
PERFORMER "Edmond Hall, James P. Johnson, Sidney De Paris, Vic Dickenson"
INDEX 01 00:00:00
FILE "08 - Blue Interval.wav" WAVE
TRACK 08 AUDIO
TITLE "Blue Interval"
PERFORMER "Edmond Hall, James P. Johnson, Sidney De Paris, Vic Dickenson"
INDEX 01 00:00:00
FILE "09 - Smooth Sailing (alt).wav" WAVE
TRACK 09 AUDIO
TITLE "Smooth Sailing (alt)"
PERFORMER "Edmond Hall, James P. Johnson, Sidney De Paris, Vic Dickenson"
INDEX 01 00:00:00
FILE "10 - Smooth Sailing.wav" WAVE
TRACK 10 AUDIO
TITLE "Smooth Sailing"
PERFORMER "Edmond Hall, James P. Johnson, Sidney De Paris, Vic Dickenson"
INDEX 01 00:00:00
FILE "11 - Seein' Red.wav" WAVE
TRACK 11 AUDIO
TITLE "Seein' Red"
PERFORMER "Edmond Hall, James P. Johnson, Sidney De Paris, Vic Dickenson"
INDEX 01 00:00:00
FILE "12 - It's Been So Long (alt).wav" WAVE
TRACK 12 AUDIO
TITLE "It's Been So Long (alt)"
PERFORMER "Edmond Hall, James P. Johnson, Sidney De Paris, Vic Dickenson"
INDEX 01 00:00:00
FILE "13 - I Can't Believe That You're In Love With Me (alt).wav" WAVE
TRACK 13 AUDIO
TITLE "I Can't Believe That You're In Love With Me (alt)"
PERFORMER "Edmond Hall, James P. Johnson, Sidney De Paris, Vic Dickenson"
INDEX 01 00:00:00
FILE "14 - I Can't Believe That You're In Love With Me.wav" WAVE
TRACK 14 AUDIO
TITLE "I Can't Believe That You're In Love With Me"
PERFORMER "Edmond Hall, James P. Johnson, Sidney De Paris, Vic Dickenson"
INDEX 01 00:00:00
FILE "15 - Big City Blues.wav" WAVE
TRACK 15 AUDIO
TITLE "Big City Blues"
PERFORMER "Edmond Hall, James P. Johnson, Sidney De Paris, Vic Dickenson"
INDEX 01 00:00:00
FILE "16 - It's Been So Long.wav" WAVE
TRACK 16 AUDIO
TITLE "It's Been So Long"
PERFORMER "Edmond Hall, James P. Johnson, Sidney De Paris, Vic Dickenson"
INDEX 01 00:00:00
FILE "17 - Steamin' And Beamin'.wav" WAVE
TRACK 17 AUDIO
TITLE "Steamin' And Beamin'"
PERFORMER "Edmond Hall, James P. Johnson, Sidney De Paris, Vic Dickenson"
INDEX 01 00:00:00
 
Disc II (66:55)
Треклист:
01. High Society (alt 1) (4:12)
02. High Society (alt 2) (4:07)
03. High Society (4:05)
04. Blues At Blue Note (alt) (5:02)
05. Blues At Blue Note (4:17)
06. Night Shift Blues (alt) (4:13)
07. Night Shift Blues (4:11)
08. Royal Garden Blues (alt) (3:57)
09. Royal Garden Blues (4:10)
10. Blue Note Boogie (3:58)
11. Blue Mizz (3:55)
12. Blue Mizz (alt) (3:50)
13. Victory Stride (alt) (4:01)
14. Victory Stride (4:03)
15. Joy Mentin' (4:29)
16. After You've Gone (4:25)
 
 
Лог создания рипа
Exact Audio Copy V1.1 from 23. June 2015
EAC extraction logfile from 18. November 2017, 0:38
Edmond Hall, James P. Johnson, Sidney De Paris, Vic Dickenson / The Complete Edmond Hall, James P. Johnson, Sidney De Paris, Vic Dickenson Blue Note Sessions (CD2)
Used drive : TSSTcorpCDDVDW SE-208DB Adapter: 1 ID: 0
Read mode : Secure
Utilize accurate stream : Yes
Defeat audio cache : Yes
Make use of C2 pointers : No
Read offset correction : 6
Overread into Lead-In and Lead-Out : No
Fill up missing offset samples with silence : Yes
Delete leading and trailing silent blocks : No
Null samples used in CRC calculations : Yes
Used interface : Native Win32 interface for Win NT & 2000
Gap handling : Appended to previous track
Used output format : User Defined Encoder
Selected bitrate : 1024 kBit/s
Quality : High
Add ID3 tag : No
Command line compressor : C:\Program Files (x86)\FLAC Frontend\tools\flac.exe
Additional command line options : -8 -V -T "ARTIST=%artist%" -T "TITLE=%title%" -T "ALBUM=%albumtitle%" -T "DATE=%year%" -T "TRACKNUMBER=%tracknr%" -T "TOTALTRACKS=%numtracks%" -T "GENRE=%genre%" -T "ALBUMARTIST=%albumartist%" -T "ALBUM ARTIST=%albumartist%" -T "COMMENT=EAC Secure Mode, Test & Copy, AccurateRip, FLAC -8" %source%
TOC of the extracted CD
Track | Start | Length | Start sector | End sector
---------------------------------------------------------
1 | 0:00.00 | 4:12.17 | 0 | 18916
2 | 4:12.17 | 4:06.63 | 18917 | 37429
3 | 8:19.05 | 4:04.72 | 37430 | 55801
4 | 12:24.02 | 5:01.48 | 55802 | 78424
5 | 17:25.50 | 4:17.25 | 78425 | 97724
6 | 21:43.00 | 4:13.15 | 97725 | 116714
7 | 25:56.15 | 4:10.57 | 116715 | 135521
8 | 30:06.72 | 3:57.05 | 135522 | 153301
9 | 34:04.02 | 4:10.23 | 153302 | 172074
10 | 38:14.25 | 3:57.65 | 172075 | 189914
11 | 42:12.15 | 3:54.50 | 189915 | 207514
12 | 46:06.65 | 3:49.67 | 207515 | 224756
13 | 49:56.57 | 4:01.33 | 224757 | 242864
14 | 53:58.15 | 4:03.17 | 242865 | 261106
15 | 58:01.32 | 4:28.73 | 261107 | 281279
16 | 62:30.30 | 4:25.07 | 281280 | 301161
Track 1
Filename D:\_EAC\Edmond Hall, James P. Johnson, Sidney De Paris, Vic Dickenson - The Complete Blue Note Sessions (1985) [FLAC]\CD2\01 - High Society (alt 1).wav
Pre-gap length 0:00:02.00
Peak level 100.0 %
Extraction speed 2.9 X
Track quality 100.0 %
Test CRC 24E0F8F5
Copy CRC 24E0F8F5
Accurately ripped (confidence 2) [E681B062] (AR v2)
Copy OK
Track 2
Filename D:\_EAC\Edmond Hall, James P. Johnson, Sidney De Paris, Vic Dickenson - The Complete Blue Note Sessions (1985) [FLAC]\CD2\02 - High Society (alt 2).wav
Peak level 88.1 %
Extraction speed 3.2 X
Track quality 100.0 %
Test CRC 1CB790B3
Copy CRC 1CB790B3
Accurately ripped (confidence 2) [0B47A13C] (AR v2)
Copy OK
Track 3
Filename D:\_EAC\Edmond Hall, James P. Johnson, Sidney De Paris, Vic Dickenson - The Complete Blue Note Sessions (1985) [FLAC]\CD2\03 - High Society.wav
Peak level 100.0 %
Extraction speed 3.5 X
Track quality 100.0 %
Test CRC 0A756CA5
Copy CRC 0A756CA5
Accurately ripped (confidence 2) [AA053E67] (AR v2)
Copy OK
Track 4
Filename D:\_EAC\Edmond Hall, James P. Johnson, Sidney De Paris, Vic Dickenson - The Complete Blue Note Sessions (1985) [FLAC]\CD2\04 - Blues At Blue Note (alt).wav
Peak level 78.7 %
Extraction speed 3.8 X
Track quality 100.0 %
Test CRC D9788AF4
Copy CRC D9788AF4
Accurately ripped (confidence 2) [198EDC09] (AR v2)
Copy OK
Track 5
Filename D:\_EAC\Edmond Hall, James P. Johnson, Sidney De Paris, Vic Dickenson - The Complete Blue Note Sessions (1985) [FLAC]\CD2\05 - Blues At Blue Note.wav
Peak level 78.5 %
Extraction speed 4.0 X
Track quality 100.0 %
Test CRC 62FF4BD8
Copy CRC 62FF4BD8
Accurately ripped (confidence 2) [7355ED53] (AR v2)
Copy OK
Track 6
Filename D:\_EAC\Edmond Hall, James P. Johnson, Sidney De Paris, Vic Dickenson - The Complete Blue Note Sessions (1985) [FLAC]\CD2\06 - Night Shift Blues (alt).wav
Peak level 79.2 %
Extraction speed 4.2 X
Track quality 100.0 %
Test CRC C51C8483
Copy CRC C51C8483
Accurately ripped (confidence 2) [66396DDA] (AR v2)
Copy OK
Track 7
Filename D:\_EAC\Edmond Hall, James P. Johnson, Sidney De Paris, Vic Dickenson - The Complete Blue Note Sessions (1985) [FLAC]\CD2\07 - Night Shift Blues.wav
Peak level 74.5 %
Extraction speed 4.4 X
Track quality 100.0 %
Test CRC FF835465
Copy CRC FF835465
Accurately ripped (confidence 2) [D4939E38] (AR v2)
Copy OK
Track 8
Filename D:\_EAC\Edmond Hall, James P. Johnson, Sidney De Paris, Vic Dickenson - The Complete Blue Note Sessions (1985) [FLAC]\CD2\08 - Royal Garden Blues (alt).wav
Peak level 95.3 %
Extraction speed 3.6 X
Track quality 99.9 %
Test CRC D2CAD691
Copy CRC D2CAD691
Accurately ripped (confidence 2) [87E17DE4] (AR v2)
Copy OK
Track 9
Filename D:\_EAC\Edmond Hall, James P. Johnson, Sidney De Paris, Vic Dickenson - The Complete Blue Note Sessions (1985) [FLAC]\CD2\09 - Royal Garden Blues.wav
Peak level 100.0 %
Extraction speed 3.8 X
Track quality 99.9 %
Test CRC 2B92E2F5
Copy CRC 2B92E2F5
Accurately ripped (confidence 2) [83575DFB] (AR v2)
Copy OK
Track 10
Filename D:\_EAC\Edmond Hall, James P. Johnson, Sidney De Paris, Vic Dickenson - The Complete Blue Note Sessions (1985) [FLAC]\CD2\10 - Blue Note Boogie.wav
Peak level 92.2 %
Extraction speed 4.8 X
Track quality 100.0 %
Test CRC 927D9E4D
Copy CRC 927D9E4D
Accurately ripped (confidence 2) [9D94464F] (AR v2)
Copy OK
Track 11
Filename D:\_EAC\Edmond Hall, James P. Johnson, Sidney De Paris, Vic Dickenson - The Complete Blue Note Sessions (1985) [FLAC]\CD2\11 - Blue Mizz.wav
Peak level 71.3 %
Extraction speed 5.0 X
Track quality 100.0 %
Test CRC 4EC1DA9E
Copy CRC 4EC1DA9E
Accurately ripped (confidence 2) [4F09257C] (AR v2)
Copy OK
Track 12
Filename D:\_EAC\Edmond Hall, James P. Johnson, Sidney De Paris, Vic Dickenson - The Complete Blue Note Sessions (1985) [FLAC]\CD2\12 - Blue Mizz (alt).wav
Peak level 69.6 %
Extraction speed 5.1 X
Track quality 100.0 %
Test CRC 26A6A243
Copy CRC 26A6A243
Accurately ripped (confidence 2) [28B315F8] (AR v2)
Copy OK
Track 13
Filename D:\_EAC\Edmond Hall, James P. Johnson, Sidney De Paris, Vic Dickenson - The Complete Blue Note Sessions (1985) [FLAC]\CD2\13 - Victory Stride (alt).wav
Peak level 76.4 %
Extraction speed 5.3 X
Track quality 100.0 %
Test CRC 69EEFF74
Copy CRC 69EEFF74
Accurately ripped (confidence 2) [993A3FF7] (AR v2)
Copy OK
Track 14
Filename D:\_EAC\Edmond Hall, James P. Johnson, Sidney De Paris, Vic Dickenson - The Complete Blue Note Sessions (1985) [FLAC]\CD2\14 - Victory Stride.wav
Peak level 68.6 %
Extraction speed 5.4 X
Track quality 100.0 %
Test CRC C5FDE743
Copy CRC C5FDE743
Accurately ripped (confidence 2) [4EFE334A] (AR v2)
Copy OK
Track 15
Filename D:\_EAC\Edmond Hall, James P. Johnson, Sidney De Paris, Vic Dickenson - The Complete Blue Note Sessions (1985) [FLAC]\CD2\15 - Joy Mentin'.wav
Peak level 91.9 %
Extraction speed 5.6 X
Track quality 100.0 %
Test CRC 7B8C6C9C
Copy CRC 7B8C6C9C
Accurately ripped (confidence 2) [0E8111A6] (AR v2)
Copy OK
Track 16
Filename D:\_EAC\Edmond Hall, James P. Johnson, Sidney De Paris, Vic Dickenson - The Complete Blue Note Sessions (1985) [FLAC]\CD2\16 - After You've Gone.wav
Peak level 89.6 %
Extraction speed 5.7 X
Track quality 100.0 %
Test CRC 5C390742
Copy CRC 5C390742
Accurately ripped (confidence 2) [416BE2A3] (AR v2)
Copy OK
All tracks accurately ripped
No errors occurred
End of status report
==== Log checksum 7ACA2FA27C53C7F10C7C421B3085B5B0A3A03BB2F6076AC0E81D11A5D4586685 ====
 
Содержание индексной карты (.CUE)
REM GENRE Jazz
REM DATE 1985
REM DISCID E90FAF10
REM COMMENT "ExactAudioCopy v1.1"
PERFORMER "Edmond Hall, James P. Johnson, Sidney De Paris, Vic Dickenson"
TITLE "The Complete Edmond Hall, James P. Johnson, Sidney De Paris, Vic Dickenson Blue Note Sessions (CD2)"
FILE "01 - High Society (alt 1).wav" WAVE
TRACK 01 AUDIO
TITLE "High Society (alt 1)"
PERFORMER "Edmond Hall, James P. Johnson, Sidney De Paris, Vic Dickenson"
INDEX 01 00:00:00
FILE "02 - High Society (alt 2).wav" WAVE
TRACK 02 AUDIO
TITLE "High Society (alt 2)"
PERFORMER "Edmond Hall, James P. Johnson, Sidney De Paris, Vic Dickenson"
INDEX 01 00:00:00
FILE "03 - High Society.wav" WAVE
TRACK 03 AUDIO
TITLE "High Society"
PERFORMER "Edmond Hall, James P. Johnson, Sidney De Paris, Vic Dickenson"
INDEX 01 00:00:00
FILE "04 - Blues At Blue Note (alt).wav" WAVE
TRACK 04 AUDIO
TITLE "Blues At Blue Note (alt)"
PERFORMER "Edmond Hall, James P. Johnson, Sidney De Paris, Vic Dickenson"
INDEX 01 00:00:00
FILE "05 - Blues At Blue Note.wav" WAVE
TRACK 05 AUDIO
TITLE "Blues At Blue Note"
PERFORMER "Edmond Hall, James P. Johnson, Sidney De Paris, Vic Dickenson"
INDEX 01 00:00:00
FILE "06 - Night Shift Blues (alt).wav" WAVE
TRACK 06 AUDIO
TITLE "Night Shift Blues (alt)"
PERFORMER "Edmond Hall, James P. Johnson, Sidney De Paris, Vic Dickenson"
INDEX 01 00:00:00
FILE "07 - Night Shift Blues.wav" WAVE
TRACK 07 AUDIO
TITLE "Night Shift Blues"
PERFORMER "Edmond Hall, James P. Johnson, Sidney De Paris, Vic Dickenson"
INDEX 01 00:00:00
FILE "08 - Royal Garden Blues (alt).wav" WAVE
TRACK 08 AUDIO
TITLE "Royal Garden Blues (alt)"
PERFORMER "Edmond Hall, James P. Johnson, Sidney De Paris, Vic Dickenson"
INDEX 01 00:00:00
FILE "09 - Royal Garden Blues.wav" WAVE
TRACK 09 AUDIO
TITLE "Royal Garden Blues"
PERFORMER "Edmond Hall, James P. Johnson, Sidney De Paris, Vic Dickenson"
INDEX 01 00:00:00
FILE "10 - Blue Note Boogie.wav" WAVE
TRACK 10 AUDIO
TITLE "Blue Note Boogie"
PERFORMER "Edmond Hall, James P. Johnson, Sidney De Paris, Vic Dickenson"
INDEX 01 00:00:00
FILE "11 - Blue Mizz.wav" WAVE
TRACK 11 AUDIO
TITLE "Blue Mizz"
PERFORMER "Edmond Hall, James P. Johnson, Sidney De Paris, Vic Dickenson"
INDEX 01 00:00:00
FILE "12 - Blue Mizz (alt).wav" WAVE
TRACK 12 AUDIO
TITLE "Blue Mizz (alt)"
PERFORMER "Edmond Hall, James P. Johnson, Sidney De Paris, Vic Dickenson"
INDEX 01 00:00:00
FILE "13 - Victory Stride (alt).wav" WAVE
TRACK 13 AUDIO
TITLE "Victory Stride (alt)"
PERFORMER "Edmond Hall, James P. Johnson, Sidney De Paris, Vic Dickenson"
INDEX 01 00:00:00
FILE "14 - Victory Stride.wav" WAVE
TRACK 14 AUDIO
TITLE "Victory Stride"
PERFORMER "Edmond Hall, James P. Johnson, Sidney De Paris, Vic Dickenson"
INDEX 01 00:00:00
FILE "15 - Joy Mentin'.wav" WAVE
TRACK 15 AUDIO
TITLE "Joy Mentin'"
PERFORMER "Edmond Hall, James P. Johnson, Sidney De Paris, Vic Dickenson"
INDEX 01 00:00:00
FILE "16 - After You've Gone.wav" WAVE
TRACK 16 AUDIO
TITLE "After You've Gone"
PERFORMER "Edmond Hall, James P. Johnson, Sidney De Paris, Vic Dickenson"
INDEX 01 00:00:00
 
Disc III (57:09)
Треклист:
01. Everybody Loves My Baby (3:37)
02. Everybody Loves My Baby (alt) (4:22)
03. Ballin' The Jack (4:45)
04. Who's Sorry Now (alt) (4:29)
05. Who's Sorry Now (4:18)
06. The Call Of The Blues (4:21)
07. Tishomingo Blues (alt) (5:00)
08. Tishomingo Blues (4:35)
09. Walkin' The Dog (alt) (4:38)
10. Walkin' The Dog (4:33)
11. Easy Rider (4:39)
12. At The Ball (alt) (3:44)
13. At The Ball (4:08)
 
 
Лог создания рипа
Exact Audio Copy V1.1 from 23. June 2015
EAC extraction logfile from 18. November 2017, 15:07
Edmond Hall, James P. Johnson, Sidney De Paris, Vic Dickenson / The Complete Edmond Hall, James P. Johnson, Sidney De Paris, Vic Dickenson Blue Note Sessions (CD3)
Used drive : TSSTcorpCDDVDW SE-208DB Adapter: 1 ID: 0
Read mode : Secure
Utilize accurate stream : Yes
Defeat audio cache : Yes
Make use of C2 pointers : No
Read offset correction : 6
Overread into Lead-In and Lead-Out : No
Fill up missing offset samples with silence : Yes
Delete leading and trailing silent blocks : No
Null samples used in CRC calculations : Yes
Used interface : Native Win32 interface for Win NT & 2000
Gap handling : Appended to previous track
Used output format : User Defined Encoder
Selected bitrate : 1024 kBit/s
Quality : High
Add ID3 tag : No
Command line compressor : C:\Program Files (x86)\FLAC Frontend\tools\flac.exe
Additional command line options : -8 -V -T "ARTIST=%artist%" -T "TITLE=%title%" -T "ALBUM=%albumtitle%" -T "DATE=%year%" -T "TRACKNUMBER=%tracknr%" -T "TOTALTRACKS=%numtracks%" -T "GENRE=%genre%" -T "ALBUMARTIST=%albumartist%" -T "ALBUM ARTIST=%albumartist%" -T "COMMENT=EAC Secure Mode, Test & Copy, AccurateRip, FLAC -8" %source%
TOC of the extracted CD
Track | Start | Length | Start sector | End sector
---------------------------------------------------------
1 | 0:00.00 | 3:37.07 | 0 | 16281
2 | 3:37.07 | 4:21.40 | 16282 | 35896
3 | 7:58.47 | 4:45.25 | 35897 | 57296
4 | 12:43.72 | 4:29.23 | 57297 | 77494
5 | 17:13.20 | 4:17.70 | 77495 | 96839
6 | 21:31.15 | 4:21.17 | 96840 | 116431
7 | 25:52.32 | 4:59.50 | 116432 | 138906
8 | 30:52.07 | 4:34.73 | 138907 | 159529
9 | 35:27.05 | 4:38.00 | 159530 | 180379
10 | 40:05.05 | 4:33.27 | 180380 | 200881
11 | 44:38.32 | 4:39.23 | 200882 | 221829
12 | 49:17.55 | 3:43.65 | 221830 | 238619
13 | 53:01.45 | 4:07.40 | 238620 | 257184
Track 1
Filename D:\_EAC\Edmond Hall, James P. Johnson, Sidney De Paris, Vic Dickenson - The Complete Blue Note Sessions (1985) [FLAC]\CD3\01 - Everybody Loves My Baby.wav
Pre-gap length 0:00:02.00
Peak level 84.2 %
Extraction speed 2.3 X
Track quality 99.9 %
Test CRC DA51E000
Copy CRC DA51E000
Accurately ripped (confidence 2) [628C321A] (AR v2)
Copy OK
Track 2
Filename D:\_EAC\Edmond Hall, James P. Johnson, Sidney De Paris, Vic Dickenson - The Complete Blue Note Sessions (1985) [FLAC]\CD3\02 - Everybody Loves My Baby (alt).wav
Peak level 65.9 %
Extraction speed 3.2 X
Track quality 100.0 %
Test CRC 7A1D9E2B
Copy CRC 7A1D9E2B
Accurately ripped (confidence 2) [DAA74460] (AR v2)
Copy OK
Track 3
Filename D:\_EAC\Edmond Hall, James P. Johnson, Sidney De Paris, Vic Dickenson - The Complete Blue Note Sessions (1985) [FLAC]\CD3\03 - Ballin' The Jack.wav
Peak level 74.6 %
Extraction speed 3.6 X
Track quality 100.0 %
Test CRC 5893BFA9
Copy CRC 5893BFA9
Accurately ripped (confidence 2) [389232E4] (AR v2)
Copy OK
Track 4
Filename D:\_EAC\Edmond Hall, James P. Johnson, Sidney De Paris, Vic Dickenson - The Complete Blue Note Sessions (1985) [FLAC]\CD3\04 - Who's Sorry Now (alt).wav
Peak level 69.3 %
Extraction speed 3.8 X
Track quality 100.0 %
Test CRC 59A28379
Copy CRC 59A28379
Accurately ripped (confidence 2) [E4DC3E7F] (AR v2)
Copy OK
Track 5
Filename D:\_EAC\Edmond Hall, James P. Johnson, Sidney De Paris, Vic Dickenson - The Complete Blue Note Sessions (1985) [FLAC]\CD3\05 - Who's Sorry Now.wav
Peak level 81.4 %
Extraction speed 3.3 X
Track quality 99.9 %
Test CRC 3D2387BF
Copy CRC 3D2387BF
Accurately ripped (confidence 2) [94D14FBC] (AR v2)
Copy OK
Track 6
Filename D:\_EAC\Edmond Hall, James P. Johnson, Sidney De Paris, Vic Dickenson - The Complete Blue Note Sessions (1985) [FLAC]\CD3\06 - The Call Of The Blues.wav
Peak level 53.1 %
Extraction speed 4.2 X
Track quality 100.0 %
Test CRC 8031588C
Copy CRC 8031588C
Accurately ripped (confidence 2) [DC42CDBC] (AR v2)
Copy OK
Track 7
Filename D:\_EAC\Edmond Hall, James P. Johnson, Sidney De Paris, Vic Dickenson - The Complete Blue Note Sessions (1985) [FLAC]\CD3\07 - Tishomingo Blues (alt).wav
Peak level 75.5 %
Extraction speed 4.4 X
Track quality 100.0 %
Test CRC 4B24D2B0
Copy CRC 4B24D2B0
Accurately ripped (confidence 2) [E1923387] (AR v2)
Copy OK
Track 8
Filename D:\_EAC\Edmond Hall, James P. Johnson, Sidney De Paris, Vic Dickenson - The Complete Blue Note Sessions (1985) [FLAC]\CD3\08 - Tishomingo Blues.wav
Peak level 59.6 %
Extraction speed 4.6 X
Track quality 100.0 %
Test CRC 2DBE753B
Copy CRC 2DBE753B
Accurately ripped (confidence 2) [BEE2061E] (AR v2)
Copy OK
Track 9
Filename D:\_EAC\Edmond Hall, James P. Johnson, Sidney De Paris, Vic Dickenson - The Complete Blue Note Sessions (1985) [FLAC]\CD3\09 - Walkin' The Dog (alt).wav
Peak level 61.1 %
Extraction speed 4.8 X
Track quality 100.0 %
Test CRC 26AD5063
Copy CRC 26AD5063
Accurately ripped (confidence 2) [2F198F12] (AR v2)
Copy OK
Track 10
Filename D:\_EAC\Edmond Hall, James P. Johnson, Sidney De Paris, Vic Dickenson - The Complete Blue Note Sessions (1985) [FLAC]\CD3\10 - Walkin' The Dog.wav
Peak level 57.4 %
Extraction speed 5.0 X
Track quality 100.0 %
Test CRC 2CEFBCE7
Copy CRC 2CEFBCE7
Accurately ripped (confidence 2) [DA27AC4C] (AR v2)
Copy OK
Track 11
Filename D:\_EAC\Edmond Hall, James P. Johnson, Sidney De Paris, Vic Dickenson - The Complete Blue Note Sessions (1985) [FLAC]\CD3\11 - Easy Rider.wav
Peak level 70.1 %
Extraction speed 5.2 X
Track quality 100.0 %
Test CRC F58102D8
Copy CRC F58102D8
Accurately ripped (confidence 2) [523638A3] (AR v2)
Copy OK
Track 12
Filename D:\_EAC\Edmond Hall, James P. Johnson, Sidney De Paris, Vic Dickenson - The Complete Blue Note Sessions (1985) [FLAC]\CD3\12 - At The Ball (alt).wav
Peak level 63.6 %
Extraction speed 5.1 X
Track quality 100.0 %
Test CRC AF807887
Copy CRC AF807887
Accurately ripped (confidence 2) [E1F60840] (AR v2)
Copy OK
Track 13
Filename D:\_EAC\Edmond Hall, James P. Johnson, Sidney De Paris, Vic Dickenson - The Complete Blue Note Sessions (1985) [FLAC]\CD3\13 - At The Ball.wav
Peak level 69.4 %
Extraction speed 5.3 X
Track quality 100.0 %
Test CRC 62284A2F
Copy CRC 62284A2F
Accurately ripped (confidence 2) [8A9BBB23] (AR v2)
Copy OK
All tracks accurately ripped
No errors occurred
End of status report
==== Log checksum FE1ADC0E0DD5336031A669B1B1BB13D7A1026EE34E860C14EA905C303782250D ====
 
Содержание индексной карты (.CUE)
REM GENRE Jazz
REM DATE 1985
REM DISCID B80D650D
REM COMMENT "ExactAudioCopy v1.1"
PERFORMER "Edmond Hall, James P. Johnson, Sidney De Paris, Vic Dickenson"
TITLE "The Complete Edmond Hall, James P. Johnson, Sidney De Paris, Vic Dickenson Blue Note Sessions (CD3)"
FILE "01 - Everybody Loves My Baby.wav" WAVE
TRACK 01 AUDIO
TITLE "Everybody Loves My Baby"
PERFORMER "Edmond Hall, James P. Johnson, Sidney De Paris, Vic Dickenson"
INDEX 01 00:00:00
FILE "02 - Everybody Loves My Baby (alt).wav" WAVE
TRACK 02 AUDIO
TITLE "Everybody Loves My Baby (alt)"
PERFORMER "Edmond Hall, James P. Johnson, Sidney De Paris, Vic Dickenson"
INDEX 01 00:00:00
FILE "03 - Ballin' The Jack.wav" WAVE
TRACK 03 AUDIO
TITLE "Ballin' The Jack"
PERFORMER "Edmond Hall, James P. Johnson, Sidney De Paris, Vic Dickenson"
INDEX 01 00:00:00
FILE "04 - Who's Sorry Now (alt).wav" WAVE
TRACK 04 AUDIO
TITLE "Who's Sorry Now (alt)"
PERFORMER "Edmond Hall, James P. Johnson, Sidney De Paris, Vic Dickenson"
INDEX 01 00:00:00
FILE "05 - Who's Sorry Now.wav" WAVE
TRACK 05 AUDIO
TITLE "Who's Sorry Now"
PERFORMER "Edmond Hall, James P. Johnson, Sidney De Paris, Vic Dickenson"
INDEX 01 00:00:00
FILE "06 - The Call Of The Blues.wav" WAVE
TRACK 06 AUDIO
TITLE "The Call Of The Blues"
PERFORMER "Edmond Hall, James P. Johnson, Sidney De Paris, Vic Dickenson"
INDEX 01 00:00:00
FILE "07 - Tishomingo Blues (alt).wav" WAVE
TRACK 07 AUDIO
TITLE "Tishomingo Blues (alt)"
PERFORMER "Edmond Hall, James P. Johnson, Sidney De Paris, Vic Dickenson"
INDEX 01 00:00:00
FILE "08 - Tishomingo Blues.wav" WAVE
TRACK 08 AUDIO
TITLE "Tishomingo Blues"
PERFORMER "Edmond Hall, James P. Johnson, Sidney De Paris, Vic Dickenson"
INDEX 01 00:00:00
FILE "09 - Walkin' The Dog (alt).wav" WAVE
TRACK 09 AUDIO
TITLE "Walkin' The Dog (alt)"
PERFORMER "Edmond Hall, James P. Johnson, Sidney De Paris, Vic Dickenson"
INDEX 01 00:00:00
FILE "10 - Walkin' The Dog.wav" WAVE
TRACK 10 AUDIO
TITLE "Walkin' The Dog"
PERFORMER "Edmond Hall, James P. Johnson, Sidney De Paris, Vic Dickenson"
INDEX 01 00:00:00
FILE "11 - Easy Rider.wav" WAVE
TRACK 11 AUDIO
TITLE "Easy Rider"
PERFORMER "Edmond Hall, James P. Johnson, Sidney De Paris, Vic Dickenson"
INDEX 01 00:00:00
FILE "12 - At The Ball (alt).wav" WAVE
TRACK 12 AUDIO
TITLE "At The Ball (alt)"
PERFORMER "Edmond Hall, James P. Johnson, Sidney De Paris, Vic Dickenson"
INDEX 01 00:00:00
FILE "13 - At The Ball.wav" WAVE
TRACK 13 AUDIO
TITLE "At The Ball"
PERFORMER "Edmond Hall, James P. Johnson, Sidney De Paris, Vic Dickenson"
INDEX 01 00:00:00
 
Disc IV (74:16)
Треклист:
01. J. P. Boogie (3:49)
02. Backwater Blues (4:02)
03. Carolina Balmoral (3:39)
04. Gut Stomp (3:32)
05. Mule Walk (4:04)
06. Arkansas Blues (3:56)
07. Caprice Rag (3:17)
08. Improvisations On Pinetop's Boogie Woogie (4:03)
09. When You Wore A Tulip (alt) (4:15)
10. When You Wore A Tulip (4:16)
11. Moose March (4:24)
12. Panama (4:00)
13. Please Don't Talk About Me When I'm Gone (3:58)
14. A Good Man Is Hard To Find (4:05)
15. Weary Blues (3:50)
16. Tenderly (3:19)
17. Gettin' Sentimental Over You (2:48)
18. Lion's Den (alt) (3:00)
19. Lion's Den (3:08)
20. In A Mellotone (2:51)
 
 
Лог создания рипа
Exact Audio Copy V1.1 from 23. June 2015
EAC extraction logfile from 18. November 2017, 16:19
Edmond Hall, James P. Johnson, Sidney De Paris, Vic Dickenson / The Complete Edmond Hall, James P. Johnson, Sidney De Paris, Vic Dickenson Blue Note Sessions (CD4)
Used drive : TSSTcorpCDDVDW SE-208DB Adapter: 1 ID: 0
Read mode : Secure
Utilize accurate stream : Yes
Defeat audio cache : Yes
Make use of C2 pointers : No
Read offset correction : 6
Overread into Lead-In and Lead-Out : No
Fill up missing offset samples with silence : Yes
Delete leading and trailing silent blocks : No
Null samples used in CRC calculations : Yes
Used interface : Native Win32 interface for Win NT & 2000
Gap handling : Appended to previous track
Used output format : User Defined Encoder
Selected bitrate : 1024 kBit/s
Quality : High
Add ID3 tag : No
Command line compressor : C:\Program Files (x86)\FLAC Frontend\tools\flac.exe
Additional command line options : -8 -V -T "ARTIST=%artist%" -T "TITLE=%title%" -T "ALBUM=%albumtitle%" -T "DATE=%year%" -T "TRACKNUMBER=%tracknr%" -T "TOTALTRACKS=%numtracks%" -T "GENRE=%genre%" -T "ALBUMARTIST=%albumartist%" -T "ALBUM ARTIST=%albumartist%" -T "COMMENT=EAC Secure Mode, Test & Copy, AccurateRip, FLAC -8" %source%
TOC of the extracted CD
Track | Start | Length | Start sector | End sector
---------------------------------------------------------
1 | 0:00.00 | 3:49.12 | 0 | 17186
2 | 3:49.12 | 4:01.45 | 17187 | 35306
3 | 7:50.57 | 3:38.38 | 35307 | 51694
4 | 11:29.20 | 3:32.22 | 51695 | 67616
5 | 15:01.42 | 4:04.08 | 67617 | 85924
6 | 19:05.50 | 3:56.02 | 85925 | 103626
7 | 23:01.52 | 3:16.40 | 103627 | 118366
8 | 26:18.17 | 4:03.20 | 118367 | 136611
9 | 30:21.37 | 4:14.70 | 136612 | 155731
10 | 34:36.32 | 4:16.25 | 155732 | 174956
11 | 38:52.57 | 4:23.50 | 174957 | 194731
12 | 43:16.32 | 4:00.25 | 194732 | 212756
13 | 47:16.57 | 3:58.20 | 212757 | 230626
14 | 51:15.02 | 4:04.63 | 230627 | 248989
15 | 55:19.65 | 3:50.07 | 248990 | 266246
16 | 59:09.72 | 3:18.68 | 266247 | 281164
17 | 62:28.65 | 2:48.20 | 281165 | 293784
18 | 65:17.10 | 2:59.67 | 293785 | 307276
19 | 68:17.02 | 3:08.20 | 307277 | 321396
20 | 71:25.22 | 2:50.53 | 321397 | 334199
Track 1
Filename D:\_EAC\Edmond Hall, James P. Johnson, Sidney De Paris, Vic Dickenson - The Complete Blue Note Sessions (1985) [FLAC]\CD4\01 - J. P. Boogie.wav
Pre-gap length 0:00:02.00
Peak level 53.2 %
Extraction speed 2.5 X
Track quality 100.0 %
Test CRC 71268AAB
Copy CRC 71268AAB
Accurately ripped (confidence 2) [42D42D74] (AR v2)
Copy OK
Track 2
Filename D:\_EAC\Edmond Hall, James P. Johnson, Sidney De Paris, Vic Dickenson - The Complete Blue Note Sessions (1985) [FLAC]\CD4\02 - Backwater Blues.wav
Peak level 60.5 %
Extraction speed 2.7 X
Track quality 100.0 %
Test CRC C0ED960C
Copy CRC C0ED960C
Accurately ripped (confidence 2) [6286709D] (AR v2)
Copy OK
Track 3
Filename D:\_EAC\Edmond Hall, James P. Johnson, Sidney De Paris, Vic Dickenson - The Complete Blue Note Sessions (1985) [FLAC]\CD4\03 - Carolina Balmoral.wav
Peak level 57.8 %
Extraction speed 2.9 X
Track quality 100.0 %
Test CRC 20A1A50D
Copy CRC 20A1A50D
Accurately ripped (confidence 2) [00F8F131] (AR v2)
Copy OK
Track 4
Filename D:\_EAC\Edmond Hall, James P. Johnson, Sidney De Paris, Vic Dickenson - The Complete Blue Note Sessions (1985) [FLAC]\CD4\04 - Gut Stomp.wav
Peak level 71.0 %
Extraction speed 3.0 X
Track quality 100.0 %
Test CRC D2BBEE79
Copy CRC D2BBEE79
Accurately ripped (confidence 2) [601B3C1D] (AR v2)
Copy OK
Track 5
Filename D:\_EAC\Edmond Hall, James P. Johnson, Sidney De Paris, Vic Dickenson - The Complete Blue Note Sessions (1985) [FLAC]\CD4\05 - Mule Walk.wav
Peak level 58.9 %
Extraction speed 3.3 X
Track quality 100.0 %
Test CRC A2BD863F
Copy CRC A2BD863F
Accurately ripped (confidence 2) [6EBB3668] (AR v2)
Copy OK
Track 6
Filename D:\_EAC\Edmond Hall, James P. Johnson, Sidney De Paris, Vic Dickenson - The Complete Blue Note Sessions (1985) [FLAC]\CD4\06 - Arkansas Blues.wav
Peak level 48.5 %
Extraction speed 3.0 X
Track quality 99.9 %
Test CRC 0E12BE6F
Copy CRC 0E12BE6F
Accurately ripped (confidence 2) [655A1AC3] (AR v2)
Copy OK
Track 7
Filename D:\_EAC\Edmond Hall, James P. Johnson, Sidney De Paris, Vic Dickenson - The Complete Blue Note Sessions (1985) [FLAC]\CD4\07 - Caprice Rag.wav
Peak level 60.0 %
Extraction speed 3.0 X
Track quality 99.9 %
Test CRC AC984BDF
Copy CRC AC984BDF
Accurately ripped (confidence 2) [FC80EC1E] (AR v2)
Copy OK
Track 8
Filename D:\_EAC\Edmond Hall, James P. Johnson, Sidney De Paris, Vic Dickenson - The Complete Blue Note Sessions (1985) [FLAC]\CD4\08 - Improvisations On Pinetop's Boogie Woogie.wav
Peak level 77.9 %
Extraction speed 3.7 X
Track quality 100.0 %
Test CRC A09B3C15
Copy CRC A09B3C15
Accurately ripped (confidence 2) [C04AD17B] (AR v2)
Copy OK
Track 9
Filename D:\_EAC\Edmond Hall, James P. Johnson, Sidney De Paris, Vic Dickenson - The Complete Blue Note Sessions (1985) [FLAC]\CD4\09 - When You Wore A Tulip (alt).wav
Peak level 100.0 %
Extraction speed 3.4 X
Track quality 99.9 %
Test CRC 7BCAE678
Copy CRC 7BCAE678
Accurately ripped (confidence 2) [EE3AB032] (AR v2)
Copy OK
Track 10
Filename D:\_EAC\Edmond Hall, James P. Johnson, Sidney De Paris, Vic Dickenson - The Complete Blue Note Sessions (1985) [FLAC]\CD4\10 - When You Wore A Tulip.wav
Peak level 100.0 %
Extraction speed 4.0 X
Track quality 100.0 %
Test CRC BD39B5FE
Copy CRC BD39B5FE
Accurately ripped (confidence 2) [50D4AD19] (AR v2)
Copy OK
Track 11
Filename D:\_EAC\Edmond Hall, James P. Johnson, Sidney De Paris, Vic Dickenson - The Complete Blue Note Sessions (1985) [FLAC]\CD4\11 - Moose March.wav
Peak level 99.3 %
Extraction speed 4.2 X
Track quality 100.0 %
Test CRC F46DC43E
Copy CRC F46DC43E
Accurately ripped (confidence 2) [D871B938] (AR v2)
Copy OK
Track 12
Filename D:\_EAC\Edmond Hall, James P. Johnson, Sidney De Paris, Vic Dickenson - The Complete Blue Note Sessions (1985) [FLAC]\CD4\12 - Panama.wav
Peak level 100.0 %
Extraction speed 3.8 X
Track quality 99.9 %
Test CRC EBD9635E
Copy CRC EBD9635E
Accurately ripped (confidence 2) [836060C7] (AR v2)
Copy OK
Track 13
Filename D:\_EAC\Edmond Hall, James P. Johnson, Sidney De Paris, Vic Dickenson - The Complete Blue Note Sessions (1985) [FLAC]\CD4\13 - Please Don't Talk About Me When I'm Gone.wav
Peak level 92.0 %
Extraction speed 4.4 X
Track quality 100.0 %
Test CRC 1AEF686D
Copy CRC 1AEF686D
Accurately ripped (confidence 2) [3248BF0E] (AR v2)
Copy OK
Track 14
Filename D:\_EAC\Edmond Hall, James P. Johnson, Sidney De Paris, Vic Dickenson - The Complete Blue Note Sessions (1985) [FLAC]\CD4\14 - A Good Man Is Hard To Find.wav
Peak level 100.0 %
Extraction speed 4.6 X
Track quality 100.0 %
Test CRC 0BDC4218
Copy CRC 0BDC4218
Accurately ripped (confidence 2) [6C93D505] (AR v2)
Copy OK
Track 15
Filename D:\_EAC\Edmond Hall, James P. Johnson, Sidney De Paris, Vic Dickenson - The Complete Blue Note Sessions (1985) [FLAC]\CD4\15 - Weary Blues.wav
Peak level 81.5 %
Extraction speed 4.0 X
Track quality 99.9 %
Test CRC CA683BE2
Copy CRC CA683BE2
Accurately ripped (confidence 2) [28BEE2E9] (AR v2)
Copy OK
Track 16
Filename D:\_EAC\Edmond Hall, James P. Johnson, Sidney De Paris, Vic Dickenson - The Complete Blue Note Sessions (1985) [FLAC]\CD4\16 - Tenderly.wav
Peak level 97.7 %
Extraction speed 4.6 X
Track quality 100.0 %
Test CRC 9E97BDC7
Copy CRC 9E97BDC7
Accurately ripped (confidence 2) [AD425F2C] (AR v2)
Copy OK
Track 17
Filename D:\_EAC\Edmond Hall, James P. Johnson, Sidney De Paris, Vic Dickenson - The Complete Blue Note Sessions (1985) [FLAC]\CD4\17 - Gettin' Sentimental Over You.wav
Peak level 71.8 %
Extraction speed 4.5 X
Track quality 100.0 %
Test CRC 8EFA757A
Copy CRC 8EFA757A
Accurately ripped (confidence 2) [85739A30] (AR v2)
Copy OK
Track 18
Filename D:\_EAC\Edmond Hall, James P. Johnson, Sidney De Paris, Vic Dickenson - The Complete Blue Note Sessions (1985) [FLAC]\CD4\18 - Lion's Den (alt).wav
Peak level 87.5 %
Extraction speed 4.0 X
Track quality 99.9 %
Test CRC 6CA1B092
Copy CRC 6CA1B092
Accurately ripped (confidence 2) [CBB7E41A] (AR v2)
Copy OK
Track 19
Filename D:\_EAC\Edmond Hall, James P. Johnson, Sidney De Paris, Vic Dickenson - The Complete Blue Note Sessions (1985) [FLAC]\CD4\19 - Lion's Den.wav
Peak level 93.0 %
Extraction speed 4.8 X
Track quality 100.0 %
Test CRC A55FED7C
Copy CRC A55FED7C
Accurately ripped (confidence 2) [06F53434] (AR v2)
Copy OK
Track 20
Filename D:\_EAC\Edmond Hall, James P. Johnson, Sidney De Paris, Vic Dickenson - The Complete Blue Note Sessions (1985) [FLAC]\CD4\20 - In A Mellotone.wav
Peak level 67.7 %
Extraction speed 4.8 X
Track quality 100.0 %
Test CRC 8DE49ECA
Copy CRC 8DE49ECA
Accurately ripped (confidence 2) [52B0119F] (AR v2)
Copy OK
All tracks accurately ripped
No errors occurred
End of status report
==== Log checksum A735782E0485CBD81D4B4D94B596385C0AC2692BF83A8E61FA66D7455AB765FA ====
 
Содержание индексной карты (.CUE)
REM GENRE Jazz
REM DATE 1985
REM DISCID 2C116814
REM COMMENT "ExactAudioCopy v1.1"
PERFORMER "Edmond Hall, James P. Johnson, Sidney De Paris, Vic Dickenson"
TITLE "The Complete Edmond Hall, James P. Johnson, Sidney De Paris, Vic Dickenson Blue Note Sessions (CD4)"
FILE "01 - J. P. Boogie.wav" WAVE
TRACK 01 AUDIO
TITLE "J. P. Boogie"
PERFORMER "Edmond Hall, James P. Johnson, Sidney De Paris, Vic Dickenson"
INDEX 01 00:00:00
FILE "02 - Backwater Blues.wav" WAVE
TRACK 02 AUDIO
TITLE "Backwater Blues"
PERFORMER "Edmond Hall, James P. Johnson, Sidney De Paris, Vic Dickenson"
INDEX 01 00:00:00
FILE "03 - Carolina Balmoral.wav" WAVE
TRACK 03 AUDIO
TITLE "Carolina Balmoral"
PERFORMER "Edmond Hall, James P. Johnson, Sidney De Paris, Vic Dickenson"
INDEX 01 00:00:00
FILE "04 - Gut Stomp.wav" WAVE
TRACK 04 AUDIO
TITLE "Gut Stomp"
PERFORMER "Edmond Hall, James P. Johnson, Sidney De Paris, Vic Dickenson"
INDEX 01 00:00:00
FILE "05 - Mule Walk.wav" WAVE
TRACK 05 AUDIO
TITLE "Mule Walk"
PERFORMER "Edmond Hall, James P. Johnson, Sidney De Paris, Vic Dickenson"
INDEX 01 00:00:00
FILE "06 - Arkansas Blues.wav" WAVE
TRACK 06 AUDIO
TITLE "Arkansas Blues"
PERFORMER "Edmond Hall, James P. Johnson, Sidney De Paris, Vic Dickenson"
INDEX 01 00:00:00
FILE "07 - Caprice Rag.wav" WAVE
TRACK 07 AUDIO
TITLE "Caprice Rag"
PERFORMER "Edmond Hall, James P. Johnson, Sidney De Paris, Vic Dickenson"
INDEX 01 00:00:00
FILE "08 - Improvisations On Pinetop's Boogie Woogie.wav" WAVE
TRACK 08 AUDIO
TITLE "Improvisations On Pinetop's Boogie Woogie"
PERFORMER "Edmond Hall, James P. Johnson, Sidney De Paris, Vic Dickenson"
INDEX 01 00:00:00
FILE "09 - When You Wore A Tulip (alt).wav" WAVE
TRACK 09 AUDIO
TITLE "When You Wore A Tulip (alt)"
PERFORMER "Edmond Hall, James P. Johnson, Sidney De Paris, Vic Dickenson"
INDEX 01 00:00:00
FILE "10 - When You Wore A Tulip.wav" WAVE
TRACK 10 AUDIO
TITLE "When You Wore A Tulip"
PERFORMER "Edmond Hall, James P. Johnson, Sidney De Paris, Vic Dickenson"
INDEX 01 00:00:00
FILE "11 - Moose March.wav" WAVE
TRACK 11 AUDIO
TITLE "Moose March"
PERFORMER "Edmond Hall, James P. Johnson, Sidney De Paris, Vic Dickenson"
INDEX 01 00:00:00
FILE "12 - Panama.wav" WAVE
TRACK 12 AUDIO
TITLE "Panama"
PERFORMER "Edmond Hall, James P. Johnson, Sidney De Paris, Vic Dickenson"
INDEX 01 00:00:00
FILE "13 - Please Don't Talk About Me When I'm Gone.wav" WAVE
TRACK 13 AUDIO
TITLE "Please Don't Talk About Me When I'm Gone"
PERFORMER "Edmond Hall, James P. Johnson, Sidney De Paris, Vic Dickenson"
INDEX 01 00:00:00
FILE "14 - A Good Man Is Hard To Find.wav" WAVE
TRACK 14 AUDIO
TITLE "A Good Man Is Hard To Find"
PERFORMER "Edmond Hall, James P. Johnson, Sidney De Paris, Vic Dickenson"
INDEX 01 00:00:00
FILE "15 - Weary Blues.wav" WAVE
TRACK 15 AUDIO
TITLE "Weary Blues"
PERFORMER "Edmond Hall, James P. Johnson, Sidney De Paris, Vic Dickenson"
INDEX 01 00:00:00
FILE "16 - Tenderly.wav" WAVE
TRACK 16 AUDIO
TITLE "Tenderly"
PERFORMER "Edmond Hall, James P. Johnson, Sidney De Paris, Vic Dickenson"
INDEX 01 00:00:00
FILE "17 - Gettin' Sentimental Over You.wav" WAVE
TRACK 17 AUDIO
TITLE "Gettin' Sentimental Over You"
PERFORMER "Edmond Hall, James P. Johnson, Sidney De Paris, Vic Dickenson"
INDEX 01 00:00:00
FILE "18 - Lion's Den (alt).wav" WAVE
TRACK 18 AUDIO
TITLE "Lion's Den (alt)"
PERFORMER "Edmond Hall, James P. Johnson, Sidney De Paris, Vic Dickenson"
INDEX 01 00:00:00
FILE "19 - Lion's Den.wav" WAVE
TRACK 19 AUDIO
TITLE "Lion's Den"
PERFORMER "Edmond Hall, James P. Johnson, Sidney De Paris, Vic Dickenson"
INDEX 01 00:00:00
FILE "20 - In A Mellotone.wav" WAVE
TRACK 20 AUDIO
TITLE "In A Mellotone"
PERFORMER "Edmond Hall, James P. Johnson, Sidney De Paris, Vic Dickenson"
INDEX 01 00:00:00
 
 
AllMusic Review by Scott Yanow
To say that this limited-edition six-LP Mosaic box is overflowing with classics is an understatement. Included are a variety of small-group sessions (with overlapping personnel) from the early days of Blue Note. The Edmond Hall Celeste Quartet has five songs that are the only existing examples of Charlie Christian playing acoustic guitar; clarinetist Hall, Meade Lux Lewis (on celeste), and bassist Israel Crosby complete the unique group. The king of stride piano, James P. Johnson, is heard on eight solos; other combos are led by Johnson, Hall (who heads four groups in all), trumpeter Sidney DeParis, and trombonist Vic Dickenson (heard in a 1952 quartet with organist Bill Doggett). Among the other key soloists are vibraphonist Red Norvo, pianist Teddy Wilson, tenor great Ben Webster, baritonist Harry Carney, clarinetist Omer Simeon, and trombonist Benny Morton. But more important than the all-star personnel is the fact that the musicians are consistently inspired, and that the performances (ranging from Dixieland to advanced swing) are well-planned yet spontaneous. The accompanying 26-page booklet is a major plus too. Essential music; get this box while you can.
 
Notes
Musicians
Edmond Hall, clarinet ; James P. Johnson, piano ; Sidney De Paris, trumpet ; Vic Dickenson, trombone ; in various combinations and with supporting performers.
Recorded in New York City Feb. 5, 1941-June 24, 1952; most selections previously issued on 78 rpm.
Jazz ensembles and piano solos.
4 compact discs boxed in one container.
Program notes by Michael Cuscuna, Manfred Selchow, Robert Hilbert, Dan Morgenstern, and Eric Thacker, including complete recording data on 1 leaf and one booklet (24 unnumbered pages : illustrations) laid in container.
Any questions -> support@pro-jazz.com. По всем вопросам пишите -> support@pro-jazz.com
22:38
319
Нет комментариев. Ваш будет первым!