Поиск

(New Age, Instrumental, Piano) Philip Aaberg - Out Of The Frame (1988), (image+.cue), lossless

(New Age, Instrumental, Piano) Philip Aaberg - Out Of The Frame (1988), (image+.cue), lossless
Треклист:
Philip Aaberg - Out Of The Frame
Жанр: New Age, Instrumental, Piano
Год издания диска: 1988
Издатель (лейбл): Windham Hill Records
Страна: США
Аудиокодек: FLAC (*.flac)
Тип рипа: image+.cue
Битрейт аудио: lossless
Продолжительность: 00:51:22
Источник (релизер): newage-music.ru
Наличие сканов в содержимом раздачи: да
Треклист:
01. Walking Through Walls (4:47)
02. Out of the Frame (5:20)
03. Nevertheless, Hello (4:53)
04. Swoop (4:30)
05. Call and Response (4:17)
06. Elegy (2:57)
07. Before Barbed Wire (4:57)
08. Words Over Water (5:56)
09. Full Court Pickup (4:06)
10. Surround (2:12)
11. Blue Horses (4:19)
12. The Wedding (3:02)
 
Лог создания рипа
Exact Audio Copy V0.99 prebeta 5 from 4. May 2009
EAC extraction logfile from 19/05/2010 21:46
Philip Aaberg / Out of the Frame
Used drive : HL-DT-STDVDRAM GH41N Adapter: 2 ID: 1
Read mode : Secure
Utilize accurate stream : Yes
Defeat audio cache : No
Make use of C2 pointers : No
Read offset correction : 667
Overread into Lead-In and Lead-Out : No
Fill up missing offset samples with silence : Yes
Delete leading and trailing silent blocks : No
Null samples used in CRC calculations : No
Used interface : Native Win32 interface for Win NT & 2000
Used output format : User Defined Encoder
Selected bitrate : 1024 kBit/s
Quality : High
Add ID3 tag : Yes
Command line compressor : D:\Software\Multimedia\Sonido\FLAC\flac.exe
TOC of the extracted CD
Track | Start | Length | Start sector | End sector
---------------------------------------------------------
1 | 0:00.00 | 4:47.67 | 0 | 21591
2 | 4:47.67 | 5:20.73 | 21592 | 45664
3 | 10:08.65 | 4:53.50 | 45665 | 67689
4 | 15:02.40 | 4:30.12 | 67690 | 87951
5 | 19:32.52 | 4:17.38 | 87952 | 107264
6 | 23:50.15 | 2:57.70 | 107265 | 120609
7 | 26:48.10 | 4:57.67 | 120610 | 142951
8 | 31:46.02 | 5:56.28 | 142952 | 169679
9 | 37:42.30 | 4:06.17 | 169680 | 188146
10 | 41:48.47 | 2:12.15 | 188147 | 198061
11 | 44:00.62 | 4:19.05 | 198062 | 217491
12 | 48:19.67 | 3:02.58 | 217492 | 231199
Range status and errors
Selected range
Filename D:\Data\mp3\Philip Aaberg - 1988 Out Of The Frame (FLAC)\Philip Aaberg - Out of the Frame.wav
Peak level 82.0 %
Range quality 100.0 %
Copy CRC EFE08590
Copy OK
No errors occurred
AccurateRip summary
Track 1 accurately ripped (confidence 1) [549B6E49]
Track 2 accurately ripped (confidence 1) [61723275]
Track 3 accurately ripped (confidence 1) [73D9379C]
Track 4 accurately ripped (confidence 1) [B877BA71]
Track 5 accurately ripped (confidence 1) [A8680F0C]
Track 6 accurately ripped (confidence 1) [5CCE0233]
Track 7 accurately ripped (confidence 1) [BDA3CFC9]
Track 8 accurately ripped (confidence 1) [2FF8BB4D]
Track 9 accurately ripped (confidence 1) [F783EABE]
Track 10 accurately ripped (confidence 1) [F9256369]
Track 11 accurately ripped (confidence 1) [993043D1]
Track 12 accurately ripped (confidence 1) [0413BB56]
All tracks accurately ripped
End of status report
 
Содержание индексной карты (.CUE)
REM GENRE Jazz
REM DATE 1988
REM DISCID 8A0C0A0C
REM COMMENT "ExactAudioCopy v0.99pb5"
CATALOG 0000000000000
PERFORMER "Philip Aaberg"
TITLE "Out of the Frame"
FILE "Philip Aaberg - Out of the Frame.flac" WAVE
TRACK 01 AUDIO
TITLE "Walking Through Walls"
PERFORMER "Philip Aaberg"
INDEX 01 00:00:00
TRACK 02 AUDIO
TITLE "Out of the Frame"
PERFORMER "Philip Aaberg"
INDEX 00 04:43:45
INDEX 01 04:47:67
TRACK 03 AUDIO
TITLE "Nevertheless, Hello"
PERFORMER "Philip Aaberg"
INDEX 01 10:08:65
TRACK 04 AUDIO
TITLE "Swoop"
PERFORMER "Philip Aaberg"
INDEX 00 14:59:62
INDEX 01 15:02:40
TRACK 05 AUDIO
TITLE "Call and Response"
PERFORMER "Philip Aaberg"
INDEX 00 19:31:72
INDEX 01 19:32:52
TRACK 06 AUDIO
TITLE "Elegy"
PERFORMER "Philip Aaberg"
INDEX 00 23:45:55
INDEX 01 23:50:15
TRACK 07 AUDIO
TITLE "Before Barbed Wire"
PERFORMER "Philip Aaberg"
INDEX 00 26:44:27
INDEX 01 26:48:10
TRACK 08 AUDIO
TITLE "Words Over Water"
PERFORMER "Philip Aaberg"
INDEX 00 31:42:57
INDEX 01 31:46:02
TRACK 09 AUDIO
TITLE "Full Court Pickup"
PERFORMER "Philip Aaberg"
INDEX 00 37:37:60
INDEX 01 37:42:30
TRACK 10 AUDIO
TITLE "Surround"
PERFORMER "Philip Aaberg"
INDEX 00 41:45:40
INDEX 01 41:48:47
TRACK 11 AUDIO
TITLE "Blue Horses"
PERFORMER "Philip Aaberg"
INDEX 00 43:57:32
INDEX 01 44:00:62
TRACK 12 AUDIO
TITLE "The Wedding"
PERFORMER "Philip Aaberg"
INDEX 00 48:18:52
INDEX 01 48:19:67
 
Лог проверки качества (Audiochecker 2.0)
AUDIOCHECKER v2.0 beta (build 457) - by Dester - opdester@freemail.hu
~~~~~~~~~~~~~~~~~~~~~~~~~~~~~~~~~~
Путь: ...\Philip Aaberg - Out Of The Frame (1985) FLAC
1 -=- Philip Aaberg - Out of the Frame.flac -=- CDDA (100%)
118678820
 
Об исполнителе
Philip Aaberg (Филипп Aaберг) (родился 8 апреля 1949 г.) - американский пианист, клавишник и композитор. Он получил международное признание благодаря серии успешных фортепианных записей изданных на Windham Hill Records. Aaberg получил классическое музікальное образование. Его музыка включает в себя как классическую музыку, так и элементы джаза, рока, и нью эйджа. Самые известные из его работ - это фортепианные соло. Произведения Филиппа Aaберга отличает "строгая техника игры, с использованием разнообразных стилей, и красочный композиционный стиль".
 
Состав
Philip Aaberg: piano
Michael Edges: guitar
Mike Marshall: mandolin & guitar
Brian McLeod: drums
Kenneth Nash: shaker & percussion
David Abel & Darol anger: violin
Barbara Higbie: voices
15:41
224
Нет комментариев. Ваш будет первым!