Поиск

(New Age) Chieli Minucci - East Of The Sun - 2009, FLAC (tracks+.cue), lossless

(New Age) Chieli Minucci - East Of The Sun - 2009, FLAC (tracks+.cue), lossless
Треклист:
Chieli Minucci - East Of The Sun
Жанр: New Age
Год выпуска : 2009
Лейбл: Watchfire Music
Аудио кодек: FLAC
Тип рипа: tracks+.cue
Битрейт аудио: lossless
Продолжительность: 00:59:37
Рип: dawndark - What CD


01. Asian Sunrise (5:06)
02. The Meditator (5:11)
03. East Of The Sun (8:17)
04. Tranquility (5:19)
05. Night Of The Crickets (6:48)
06. Winds Of Java (5:38)
07. The Dream (6:30)
08. Eyes Of Love (5:09)
09. Eastern Spirit (6:34)
10. Gamelan Games (5:05)

 
EAC
Exact Audio Copy V0.99 prebeta 4 from 23. January 2008
EAC extraction logfile from 2. July 2009, 19:03
Chieli Minucci / East Of The Sun
Used drive : PLEXTOR CD-R PREMIUM2 Adapter: 1 ID: 1
Read mode : Secure
Utilize accurate stream : Yes
Defeat audio cache : Yes
Make use of C2 pointers : No
Read offset correction : 30
Overread into Lead-In and Lead-Out : No
Fill up missing offset samples with silence : Yes
Delete leading and trailing silent blocks : No
Null samples used in CRC calculations : Yes
Used interface : Installed external ASPI interface
Gap handling : Appended to previous track
Used output format : User Defined Encoder
Selected bitrate : 32 kBit/s
Quality : High
Add ID3 tag : No
Command line compressor : C:\Programmi\FLAC\flac.exe
Additional command line options : -8 -V -T "ARTIST=%a" -T "TITLE=%t" -T "ALBUM=%g" -T "DATE=%y" -T "TRACKNUMBER=%n" -T "GENRE=%m" -T "COMMENT=EAC FLAC -8" %s
TOC of the extracted CD
Track | Start | Length | Start sector | End sector
---------------------------------------------------------
1 | 0:00.00 | 5:05.69 | 0 | 22943
2 | 5:05.69 | 5:11.34 | 22944 | 46302
3 | 10:17.28 | 8:17.26 | 46303 | 83603
4 | 18:34.54 | 5:18.44 | 83604 | 107497
5 | 23:53.23 | 6:47.67 | 107498 | 138089
6 | 30:41.15 | 5:37.66 | 138090 | 163430
7 | 36:19.06 | 6:29.62 | 163431 | 192667
8 | 42:48.68 | 5:09.37 | 192668 | 215879
9 | 47:58.30 | 6:34.23 | 215880 | 245452
10 | 54:32.53 | 5:05.13 | 245453 | 268340
Track 1
Filename D:\My Rip\01 - Asian Sunrise.wav
Pre-gap length 0:00:02.00
Peak level 98.0 %
Track quality 100.0 %
Test CRC 9EC7124F
Copy CRC 9EC7124F
Track not present in AccurateRip database
Copy OK
Track 2
Filename D:\My Rip\02 - The Meditator.wav
Peak level 98.0 %
Track quality 99.9 %
Test CRC 733A6C7B
Copy CRC 733A6C7B
Track not present in AccurateRip database
Copy OK
Track 3
Filename D:\My Rip\03 - East Of The Sun.wav
Peak level 97.9 %
Track quality 100.0 %
Test CRC BD3EF225
Copy CRC BD3EF225
Track not present in AccurateRip database
Copy OK
Track 4
Filename D:\My Rip\04 - Tranquility.wav
Peak level 80.5 %
Track quality 100.0 %
Test CRC 5C129730
Copy CRC 5C129730
Track not present in AccurateRip database
Copy OK
Track 5
Filename D:\My Rip\05 - Night Of The Crickets.wav
Peak level 97.9 %
Track quality 100.0 %
Test CRC 036D5287
Copy CRC 036D5287
Track not present in AccurateRip database
Copy OK
Track 6
Filename D:\My Rip\06 - Winds Of Java.wav
Peak level 98.0 %
Track quality 100.0 %
Test CRC DBBAACC5
Copy CRC DBBAACC5
Track not present in AccurateRip database
Copy OK
Track 7
Filename D:\My Rip\07 - The Dream.wav
Peak level 87.3 %
Track quality 99.9 %
Test CRC 6859D4A5
Copy CRC 6859D4A5
Track not present in AccurateRip database
Copy OK
Track 8
Filename D:\My Rip\08 - Eyes Of Love.wav
Peak level 98.0 %
Track quality 99.9 %
Test CRC 09134F2A
Copy CRC 09134F2A
Track not present in AccurateRip database
Copy OK
Track 9
Filename D:\My Rip\09 - Eastern Spirit.wav
Peak level 87.3 %
Track quality 100.0 %
Test CRC 3AD94FDC
Copy CRC 3AD94FDC
Track not present in AccurateRip database
Copy OK
Track 10
Filename D:\My Rip\10 - Gamelan Games.wav
Peak level 97.9 %
Track quality 99.9 %
Test CRC 5ABBCE25
Copy CRC 5ABBCE25
Track not present in AccurateRip database
Copy OK
None of the tracks are present in the AccurateRip database
No errors occurred
End of status report
 
CUE
REM GENRE "Smooth Jazz"
REM DATE 2009
REM DISCID 7E0DF90A
REM COMMENT "ExactAudioCopy v0.99pb4"
PERFORMER "Chieli Minucci"
TITLE "East Of The Sun"
FILE "01 - Asian Sunrise.wav" WAVE
TRACK 01 AUDIO
TITLE "Asian Sunrise"
PERFORMER "Chieli Minucci"
INDEX 01 00:00:00
FILE "02 - The Meditator.wav" WAVE
TRACK 02 AUDIO
TITLE "The Meditator"
PERFORMER "Chieli Minucci"
INDEX 01 00:00:00
FILE "03 - East Of The Sun.wav" WAVE
TRACK 03 AUDIO
TITLE "East Of The Sun"
PERFORMER "Chieli Minucci"
INDEX 01 00:00:00
FILE "04 - Tranquility.wav" WAVE
TRACK 04 AUDIO
TITLE "Tranquility"
PERFORMER "Chieli Minucci"
INDEX 01 00:00:00
FILE "05 - Night Of The Crickets.wav" WAVE
TRACK 05 AUDIO
TITLE "Night Of The Crickets"
PERFORMER "Chieli Minucci"
INDEX 01 00:00:00
FILE "06 - Winds Of Java.wav" WAVE
TRACK 06 AUDIO
TITLE "Winds Of Java"
PERFORMER "Chieli Minucci"
INDEX 01 00:00:00
FILE "07 - The Dream.wav" WAVE
TRACK 07 AUDIO
TITLE "The Dream"
PERFORMER "Chieli Minucci"
INDEX 01 00:00:00
FILE "08 - Eyes Of Love.wav" WAVE
TRACK 08 AUDIO
TITLE "Eyes Of Love"
PERFORMER "Chieli Minucci"
INDEX 01 00:00:00
FILE "09 - Eastern Spirit.wav" WAVE
TRACK 09 AUDIO
TITLE "Eastern Spirit"
PERFORMER "Chieli Minucci"
INDEX 01 00:00:00
FILE "10 - Gamelan Games.wav" WAVE
TRACK 10 AUDIO
TITLE "Gamelan Games"
PERFORMER "Chieli Minucci"
INDEX 01 00:00:00
 
Audiochecker
Started at: вторник, 16. 02. 2010. - 18:31.55
10 files found
01 -===- C:\Downloads\Music\Джаз\Chieli Minucci - East Of The Sun - 2009\01 - Asian Sunrise.flac
Extracted successfully
Conclusion: This track looks like CDDA with probability 100%
Tempfile successfully deleted.
02 -===- C:\Downloads\Music\Джаз\Chieli Minucci - East Of The Sun - 2009\02 - The Meditator.flac
Extracted successfully
Conclusion: This track looks like CDDA with probability 86%
Tempfile successfully deleted.
03 -===- C:\Downloads\Music\Джаз\Chieli Minucci - East Of The Sun - 2009\03 - East Of The Sun.flac
Extracted successfully
Conclusion: This track looks like CDDA with probability 62%
Tempfile successfully deleted.
04 -===- C:\Downloads\Music\Джаз\Chieli Minucci - East Of The Sun - 2009\04 - Tranquility.flac
Extracted successfully
Conclusion: This track looks like CDDA with probability 100%
Tempfile successfully deleted.
05 -===- C:\Downloads\Music\Джаз\Chieli Minucci - East Of The Sun - 2009\05 - Night Of The Crickets.flac
Extracted successfully
Conclusion: This track looks like CDDA with probability 43%
Tempfile successfully deleted.
06 -===- C:\Downloads\Music\Джаз\Chieli Minucci - East Of The Sun - 2009\06 - Winds Of Java.flac
Extracted successfully
Conclusion: This track looks like CDDA with probability 100%
Tempfile successfully deleted.
07 -===- C:\Downloads\Music\Джаз\Chieli Minucci - East Of The Sun - 2009\07 - The Dream.flac
Extracted successfully
Conclusion: This track looks like CDDA with probability 99%
Tempfile successfully deleted.
08 -===- C:\Downloads\Music\Джаз\Chieli Minucci - East Of The Sun - 2009\08 - Eyes Of Love.flac
Extracted successfully
Conclusion: This track looks like CDDA with probability 100%
Tempfile successfully deleted.
09 -===- C:\Downloads\Music\Джаз\Chieli Minucci - East Of The Sun - 2009\09 - Eastern Spirit.flac
Extracted successfully
Conclusion: This track looks like CDDA with probability 62%
Tempfile successfully deleted.
10 -===- C:\Downloads\Music\Джаз\Chieli Minucci - East Of The Sun - 2009\10 - Gamelan Games.flac
Extracted successfully
Conclusion: This track looks like MPEG with probability 100%
Tempfile successfully deleted.
Finished at: вторник, 16. 02. 2010. - 18:44.22 (operation time: 0:12.26)
По всем вопросам пишите личное сообщение пользователю M0p94ok.
03:24
216
Нет комментариев. Ваш будет первым!