Поиск

(MPB, Samba, Samba-Jazz) Jorge Ben - O Bidu - Silencio no Brooklin (1967) - 1992, FLAC (image+.cue), lossless

(MPB, Samba, Samba-Jazz) Jorge Ben - O Bidu - Silencio no Brooklin (1967) - 1992, FLAC (image+.cue), lossless
Треклист:
Jorge Ben / O Bidu - Silencio no Brooklin (1967)
Жанр: MPB, Samba, Samba-Jazz
Страна-производитель диска: Brasil
Год издания: 1992
Издатель (лейбл): Movieplay
Номер по каталогу: ABW-81490
Страна: Brasil
Аудиокодек: FLAC (*.flac)
Тип рипа: image+.cue
Битрейт аудио: lossless
Продолжительность: 31:54
Источник (релизер): rpt
Наличие сканов в содержимом раздачи: да
Треклист:
01. Amor de Carnaval
02. Nascimento de um Príncipe Africano
03. Jovem Samba
04. Rosa mas que nada
05. Canção de uma Fã
06. Menina Gata Augusta
07. Toda Colorida
08. Olha o Menino (Frases)
09. Quanto mais te Vejo
10. Vou Andando
11. Sou da Pesada
12. Si Manda
 
Лог создания рипа
Exact Audio Copy V1.0 beta 3 from 29. August 2011
EAC extraction logfile from 30. August 2012, 12:20
Jorge Ben / O Bidú - Silêncio No Brooklin
Used drive : ATAPI iHAS122 Adapter: 4 ID: 0
Read mode : Secure
Utilize accurate stream : Yes
Defeat audio cache : Yes
Make use of C2 pointers : No
Read offset correction : 6
Overread into Lead-In and Lead-Out : No
Fill up missing offset samples with silence : Yes
Delete leading and trailing silent blocks : No
Null samples used in CRC calculations : Yes
Used interface : Installed external ASPI interface
Used output format : Internal WAV Routines
Sample format : 44.100 Hz; 16 Bit; Stereo
TOC of the extracted CD
Track | Start | Length | Start sector | End sector
---------------------------------------------------------
1 | 0:00.32 | 2:22.58 | 32 | 10739
2 | 2:23.15 | 3:55.10 | 10740 | 28374
3 | 6:18.25 | 1:48.42 | 28375 | 36516
4 | 8:06.67 | 2:31.00 | 36517 | 47841
5 | 10:37.67 | 2:11.35 | 47842 | 57701
6 | 12:49.27 | 2:58.53 | 57702 | 71104
7 | 15:48.05 | 3:17.57 | 71105 | 85936
8 | 19:05.62 | 2:50.18 | 85937 | 98704
9 | 21:56.05 | 1:54.00 | 98705 | 107254
10 | 23:50.05 | 2:25.62 | 107255 | 118191
11 | 26:15.67 | 2:03.18 | 118192 | 127434
12 | 28:19.10 | 2:55.10 | 127435 | 140569
Range status and errors
Selected range
Filename H:\rEApEAt\Jorge Ben - O Bidu - Silencio No Brooklin\Jorge Ben - O Bidu - Silencio No Brooklin.wav
Peak level 93.3 %
Extraction speed 2.7 X
Range quality 100.0 %
Test CRC D09E1A8A
Copy CRC D09E1A8A
Copy OK
No errors occurred
AccurateRip summary
Track 1 not present in database
Track 2 not present in database
Track 3 not present in database
Track 4 not present in database
Track 5 not present in database
Track 6 not present in database
Track 7 not present in database
Track 8 not present in database
Track 9 not present in database
Track 10 not present in database
Track 11 not present in database
Track 12 not present in database
None of the tracks are present in the AccurateRip database
End of status report
==== Log checksum 085A1823929620BDC8151B06F82091E196EEE73CCB12F35202CB0ADFC62FDB1F ====
 
Об альбоме (сборнике)
Wow! What a gorgeous record! Layered, lavish production, mixing '60s psych, blues and Herb Alpert-style pop with killer African percussion and slinky samba rhythms. One of his best, most creative and catchy albums, and worth looking hard for. Apparently, the backing band on this album is the rock-pop outfit, Os Fevers... at least that's the rumor, although this disc sounds much wilder and imaginative than anything I've heard them do elsewhere. In his autobiography, Tropical Truth, Caetano Veloso talks at great length about this album, how it anticipated many of the genre-crossing feats that the tropicalia crowd wanted to try, and how greatly he and Gilberto Gil admired Ben's amazing musical vision. (Unfortunately, the mastering on both the 1992 Movietone (sic) CD and the 2010 MP3 reissue is a bit iffy -- thin in one case, murky in the other. Still, this is worth picking up... Even with the crappy sound quality, this album is an absolute must-hear.) (slipcue.com)
Jorge Ben's early works (1963-1976) were recently released in the "Salve Jorge! Box Set", which is relatively easy to find (in proper lossless releases).
Unfortunately, "O Bidú - Silêncio no Brooklin" (recorded in 1967 with The Fevers' band) is a completely different history. It's not easy - if not impossible - to find in lossless format, and it's the only album from those years that was not included in the Salve Jorge! Box Set. It's a shame, because the music in this "crappy sound quality" CD obviously deserves a much better treatment.
10:25
445
Нет комментариев. Ваш будет первым!