Поиск

(MPB, Latin jazz, Brasilian) Gilberto Gil - Realce (1979) - 2003, FLAC (image+.cue), lossless

(MPB, Latin jazz, Brasilian) Gilberto Gil - Realce (1979) - 2003, FLAC (image+.cue), lossless
Gilberto Gil / Realce (1979)
Жанр: MPB, Latin jazz, Brasilian
Страна-производитель диска: USA
Год издания: 2003
Издатель (лейбл): Warner
Номер по каталогу: 092746037-2
Страна: Brasilia
Аудиокодек: FLAC (*.flac)
Тип рипа: image+.cue
Битрейт аудио: lossless
Продолжительность: 01:00:10
Источник (релизер): rpt
Наличие сканов в содержимом раздачи: да
Треклист:
01. Realce
02. Sarará miolo
03. Super-homem - a canção
04. Tradição
05. Marina
06. Rebento
07. Toda menina baiana
08. Logunedé
09. Não chore mais
Bonus tracks (1978)
10. Macapá
11. Acertei no milhar
12. Senhor delegado
13. Escurinho
14. Minha nega na janela
15. A situação do escurinho
16. Samba rubro-negro (O mais querido)
 
Лог создания рипа
Exact Audio Copy V1.0 beta 3 from 29. August 2011
EAC extraction logfile from 24. August 2012, 23:45
Gilberto Gil / Realce
Used drive : PLEXTOR DVDR PX-870A Adapter: 6 ID: 0
Read mode : Secure
Utilize accurate stream : Yes
Defeat audio cache : Yes
Make use of C2 pointers : No
Read offset correction : 6
Overread into Lead-In and Lead-Out : No
Fill up missing offset samples with silence : Yes
Delete leading and trailing silent blocks : No
Null samples used in CRC calculations : Yes
Used interface : Installed external ASPI interface
Used output format : Internal WAV Routines
Sample format : 44.100 Hz; 16 Bit; Stereo
TOC of the extracted CD
Track | Start | Length | Start sector | End sector
---------------------------------------------------------
1 | 0:00.00 | 4:44.07 | 0 | 21306
2 | 4:44.07 | 4:50.28 | 21307 | 43084
3 | 9:34.35 | 4:07.27 | 43085 | 61636
4 | 13:41.62 | 4:54.40 | 61637 | 83726
5 | 18:36.27 | 4:14.43 | 83727 | 102819
6 | 22:50.70 | 2:56.37 | 102820 | 116056
7 | 25:47.32 | 3:46.48 | 116057 | 133054
8 | 29:34.05 | 3:58.70 | 133055 | 150974
9 | 33:33.00 | 4:36.65 | 150975 | 171739
10 | 38:09.65 | 3:45.17 | 171740 | 188631
11 | 41:55.07 | 2:06.23 | 188632 | 198104
12 | 44:01.30 | 2:38.00 | 198105 | 209954
13 | 46:39.30 | 3:35.62 | 209955 | 226141
14 | 50:15.17 | 3:43.03 | 226142 | 242869
15 | 53:58.20 | 3:14.10 | 242870 | 257429
16 | 57:12.30 | 3:45.67 | 257430 | 274371
Range status and errors
Selected range
Filename H:\rEApEAt\Gilberto Gil - Realce\Gilberto Gil - Realce.wav
Peak level 99.0 %
Extraction speed 3.4 X
Range quality 99.9 %
Test CRC CB631061
Copy CRC CB631061
Copy OK
No errors occurred
AccurateRip summary
Track 1 accurately ripped (confidence 2) [B85EA43D] (AR v1)
Track 2 accurately ripped (confidence 2) [68DB2531] (AR v1)
Track 3 accurately ripped (confidence 2) [C52791CC] (AR v1)
Track 4 not present in database
Track 5 accurately ripped (confidence 2) [4864B2F1] (AR v1)
Track 6 accurately ripped (confidence 2) [2C2382C5] (AR v1)
Track 7 accurately ripped (confidence 2) [E895D529] (AR v1)
Track 8 accurately ripped (confidence 2) [38015725] (AR v1)
Track 9 accurately ripped (confidence 2) [88135BF8] (AR v1)
Track 10 accurately ripped (confidence 2) [333B1260] (AR v1)
Track 11 accurately ripped (confidence 3) [CD190FF2] (AR v1)
Track 12 accurately ripped (confidence 3) [2487AE3A] (AR v1)
Track 13 accurately ripped (confidence 3) [5C19DBE4] (AR v1)
Track 14 accurately ripped (confidence 2) [D8D726FF] (AR v1)
Track 15 accurately ripped (confidence 2) [99459048] (AR v1)
Track 16 accurately ripped (confidence 2) [3ECDCDB8] (AR v1)
15 track(s) accurately ripped
1 track(s) not present in the AccurateRip database
Some tracks could not be verified as accurate
End of status report
==== Log checksum 71B7F789F9A52F066ABE82348F121DD601EF4F78AE5188C05BC2B0128AD7EA99 ====
 
Об альбоме (сборнике)
The end of the military dictatorship in Brazil left the country lost in its references and opened way for a period of wild hedonism. Realce, one of Gilberto Gil's most disco-influenced albums, is a document of that period. Released in LP format in 1979, it had the disco ideology expressed in several songs like "Realce" (which became slang for a dangerous drug frequently consumed in those places), "Sarará Miolo" (also a danceable tune, finds room for social criticism through black pride, where Gil reproaches the use of straightening and discoloring of hair by his brothers and sisters), "Marina" (featuring Dorival Caymmi), and "Toda Menina Baiana" (a hybrid of disco and Bahian samba). But there are other songs more faithful to Gil's style. "Super-homem - A Canção" is a sensitive ballad about the bisexual composition of human psyche, and the importance of the feminine in society. "Tradiçao" is a beautiful samba, richly harmonized, and the lyrics talk about Gil's fascination with a guy of the streets. "Rebento," another juicy samba with intelligent lyrics, was re-recorded by Elis Regina. And "Não Chore Mais," which was another big hit of the album, is a version of B. Vincent's "No Woman, No Cry" made famous by Bob Marley. (Álvaro Neder)
"Realce" is a portuguese (and spanish) word, mainly used in plastic arts, that means "highlight" and "enhancement". But the title song of this album has nothing to do with plastic arts. The lyrics makes a (slang) clear reference not only to "a dangerous drug", as stated by Álvaro Neder, but also to marijuana. Nonetheless, "Super-homem", "Rebento". "Toda menina baiana" and "Não chore mais" are my preferred ones.
"Realce" is a portuguese (and spanish) word, mainly used in plastic arts, that means "highlight" and "enhancement". But the title song of this album has nothing to do with plastic arts. The lyrics makes a (slang) clear reference not only to "a dangerous drug", as stated by Álvaro Neder, but also to marijuana. Nonetheless, "Super-homem", "Rebento". "Toda menina baiana" and "Não chore mais" are my preferred ones
11:46
591
Нет комментариев. Ваш будет первым!