Поиск

(Modern Jazz/Free Improvisation) Huntsville - For the Middle Class - 2006, APE (image + .cue), lossless

Треклист:
Huntsville - For the Middle Class
Страна: Norway
Жанр: Modern Jazz/Free Improvisation
Год выпуска: 2006
Формат: APE (image + .cue)
Битрейт аудио: lossless
Продолжительность: 50:11
Трэклист:
1. Appearance of a Wise Child
2. Serious Like a Pope
3. Add a Key of Humanity
4. Melon
Доп. информация:
Iver Grydeland: acoustic and electric guitars, banjo, pedal steel guitar, radio, electronics, organ and voice
Tony Kluften: bass, rhythm machine and glockenspiel
Ingar Zach: percussion, tabla machine, sarangi box and shruti box
Label: Rune Grammofon
Artwork
Рекомендуется при депрессиях, угрызениях совести, весенних авитаминозах и вообще рекомендуется
 
EAC log
Exact Audio Copy V0.99 prebeta 4 from 23. January 2008
EAC extraction logfile from 19. April 2008, 19:04
huntsville / for the middle class
Used drive : PIONEER DVD-RW DVR-109 Adapter: 1 ID: 0
Read mode : Secure
Utilize accurate stream : Yes
Defeat audio cache : Yes
Make use of C2 pointers : No
Read offset correction : 48
Overread into Lead-In and Lead-Out : No
Fill up missing offset samples with silence : Yes
Delete leading and trailing silent blocks : No
Null samples used in CRC calculations : Yes
Used interface : Native Win32 interface for Win NT & 2000
Used output format : Monkey's Audio Lossless Encoder v3.99 DLL
Sample format : Normal Lossless Compression
TOC of the extracted CD
Track | Start | Length | Start sector | End sector
---------------------------------------------------------
1 | 0:00.00 | 15:28.42 | 0 | 69641
2 | 15:28.42 | 5:03.63 | 69642 | 92429
3 | 20:32.30 | 22:09.33 | 92430 | 192137
4 | 42:41.63 | 7:29.27 | 192138 | 225839
Range status and errors
Selected range
Filename D:\Torrent\Huntsville - For the Middle Class (2006)\huntsville - for the middle class.ape
Peak level 99.7 %
Range quality 100.0 %
Copy CRC 3E10CAEC
Copy OK
No errors occurred
AccurateRip summary
Track 1 not present in database
Track 2 not present in database
Track 3 not present in database
Track 4 not present in database
None of the tracks are present in the AccurateRip database
End of status report
Приватный:
Нет (DHT включён)
Размер:
291.24 Мб (305,388,768 байт) » файлов: 6
Участники:
0 раздают, 0 качают (0 участников всего)
Внешние участники:
1 раздают, 0 качают (1 участников всего) [ Обновить ]
Есть вопросы - пишите личное сообщение пользователю M0p94ok.
00:33
39
Нет комментариев. Ваш будет первым!