Поиск

(Modern jazz, Post Bop, Guitar) Kurt Rosenwinkel & OJM (Orquestra de Matosinhos) - Our Secret World - 2010, FLAC (tracks+.cue), lossless

(Modern jazz, Post Bop, Guitar) Kurt Rosenwinkel & OJM (Orquestra de Matosinhos) - Our Secret World - 2010, FLAC (tracks+.cue), lossless
Треклист:
Kurt Rosenwinkel & OJM (Orquestra de Matosinhos) - Our Secret World (2010)
Жанр: Modern jazz, Post Bop, Guitar
Год издания: 2010
Издатель (лейбл): Wommusic
Аудиокодек: FLAC (*.flac)
Тип рипа: tracks+.cue
Битрейт аудио: lossless
Продолжительность: 01:06:13
Источник (релизер): Другой трекер, CmdrChesticle
Наличие сканов в содержимом раздачи: нет
Треклист:
01. Our Secret World (6:36)
02. The Cloister (9:18)
03. Zhivago (8:45)
04. Dream of the Old (11:35)
05. Turns (6:39)
06. Use of Light (10:10)
07. Path of the Heart (13:11)
 
Лог создания рипа (XLD)
X Lossless Decoder version 20110924 (136.3)
XLD extraction logfile from 2011-11-04 02:12:32 +0000
Kurt Rosenwinkel & OJM / Our Secret World
Used drive : MATSHITA DVD-R   UJ-8A8 (revision HA13)
Ripper mode             : XLD Secure Ripper
Disable audio cache     : OK for the drive with a cache less than 1375KiB
Make use of C2 pointers : NO
Read offset correction  : 102
Max retry count         : 100
Gap status              : Analyzed, Appended (except HTOA)
TOC of the extracted CD
     Track |   Start  |  Length  | Start sector | End sector
    ---------------------------------------------------------
        1  | 00:00:00 | 06:35:39 |         0    |    29663
        2  | 06:35:39 | 09:18:31 |     29664    |    71544
        3  | 15:53:70 | 08:45:02 |     71545    |   110921
        4  | 24:38:72 | 11:34:39 |    110922    |   163010
        5  | 36:13:36 | 06:38:49 |    163011    |   192909
        6  | 42:52:10 | 10:10:16 |    192910    |   238675
        7  | 53:02:26 | 13:10:56 |    238676    |   297981
AccurateRip Summary
    Track 01 : OK (AR2, confidence 1)
    Track 02 : OK (AR2, confidence 1)
    Track 03 : OK (AR2, confidence 1)
    Track 04 : OK (AR2, confidence 1)
    Track 05 : OK (AR2, confidence 1)
    Track 06 : OK (AR2, confidence 1)
    Track 07 : OK (AR2, confidence 1)
        ->All tracks accurately ripped.
All Tracks
    Album gain             : -6.76 dB
    Peak                   : 0.998871
    Statistics
        Read error                           : 0
        Jitter error (maybe fixed)           : 0
        Retry sector count                   : 0
        Damaged sector count                 : 0
Track 01
    Filename : /Users/ianwolff/Downloads/torrent seeding/Kurt Rosenwinkel & OJM - Our Secret World (2010) [FLAC]/01 Our Secret World.flac
    Pre-gap length : 00:02:00
    Track gain             : -7.65 dB
    Peak                   : 0.992889
    CRC32 hash (test run)  : 9CD31B9B
    CRC32 hash             : 9CD31B9B
    CRC32 hash (skip zero) : C0A00D36
    AccurateRip signature  : 56B60E5B
        ->Accurately ripped! (AR2, confidence 1)
    Statistics
        Read error                           : 0
        Jitter error (maybe fixed)           : 0
        Retry sector count                   : 0
        Damaged sector count                 : 0
Track 02
    Filename : /Users/ianwolff/Downloads/torrent seeding/Kurt Rosenwinkel & OJM - Our Secret World (2010) [FLAC]/02 The Cloister.flac
    Track gain             : -7.11 dB
    Peak                   : 0.989136
    CRC32 hash (test run)  : ED508AD5
    CRC32 hash             : ED508AD5
    CRC32 hash (skip zero) : 609ECF4B
    AccurateRip signature  : B5569648
        ->Accurately ripped! (AR2, confidence 1)
    Statistics
        Read error                           : 0
        Jitter error (maybe fixed)           : 0
        Retry sector count                   : 0
        Damaged sector count                 : 0
Track 03
    Filename : /Users/ianwolff/Downloads/torrent seeding/Kurt Rosenwinkel & OJM - Our Secret World (2010) [FLAC]/03 Zhivago.flac
    Track gain             : -6.84 dB
    Peak                   : 0.993256
    CRC32 hash (test run)  : DBBD30DA
    CRC32 hash             : DBBD30DA
    CRC32 hash (skip zero) : 421EFF8F
    AccurateRip signature  : 31BB1431
        ->Accurately ripped! (AR2, confidence 1)
    Statistics
        Read error                           : 0
        Jitter error (maybe fixed)           : 0
        Retry sector count                   : 0
        Damaged sector count                 : 0
Track 04
    Filename : /Users/ianwolff/Downloads/torrent seeding/Kurt Rosenwinkel & OJM - Our Secret World (2010) [FLAC]/04 Dream of the Old.flac
    Track gain             : -5.81 dB
    Peak                   : 0.976196
    CRC32 hash (test run)  : 95DE246E
    CRC32 hash             : 95DE246E
    CRC32 hash (skip zero) : 6A9C1D7C
    AccurateRip signature  : 47324E43
        ->Accurately ripped! (AR2, confidence 1)
    Statistics
        Read error                           : 0
        Jitter error (maybe fixed)           : 0
        Retry sector count                   : 0
        Damaged sector count                 : 0
Track 05
    Filename : /Users/ianwolff/Downloads/torrent seeding/Kurt Rosenwinkel & OJM - Our Secret World (2010) [FLAC]/05 Turns.flac
    Track gain             : -6.95 dB
    Peak                   : 0.998871
    CRC32 hash (test run)  : 01BDE06D
    CRC32 hash             : 01BDE06D
    CRC32 hash (skip zero) : C476B2E7
    AccurateRip signature  : B0E3B52C
        ->Accurately ripped! (AR2, confidence 1)
    Statistics
        Read error                           : 0
        Jitter error (maybe fixed)           : 0
        Retry sector count                   : 0
        Damaged sector count                 : 0
Track 06
    Filename : /Users/ianwolff/Downloads/torrent seeding/Kurt Rosenwinkel & OJM - Our Secret World (2010) [FLAC]/06 Use of Light.flac
    Track gain             : -6.59 dB
    Peak                   : 0.983276
    CRC32 hash (test run)  : 16CDAAF0
    CRC32 hash             : 16CDAAF0
    CRC32 hash (skip zero) : E88BA4BE
    AccurateRip signature  : 154905EC
        ->Accurately ripped! (AR2, confidence 1)
    Statistics
        Read error                           : 0
        Jitter error (maybe fixed)           : 0
        Retry sector count                   : 0
        Damaged sector count                 : 0
Track 07
    Filename : /Users/ianwolff/Downloads/torrent seeding/Kurt Rosenwinkel & OJM - Our Secret World (2010) [FLAC]/07 Path of the Heart.flac
    Track gain             : -6.12 dB
    Peak                   : 0.983551
    CRC32 hash (test run)  : D084F187
    CRC32 hash             : D084F187
    CRC32 hash (skip zero) : 6B0B370B
    AccurateRip signature  : B21AD50F
        ->Accurately ripped! (AR2, confidence 1)
    Statistics
        Read error                           : 0
        Jitter error (maybe fixed)           : 0
        Retry sector count                   : 0
        Damaged sector count                 : 0
No errors occurred
End of status report
 
 
Содержание индексной карты (.CUE)
TITLE "Our Secret World"
PERFORMER "Kurt Rosenwinkel & OJM"
REM GENRE "Jazz"
REM DATE "2010"
REM DISCNUMBER 1
REM TOTALDISCS 1
REM DISCID 660F8507
REM REPLAYGAIN_ALBUM_GAIN -6.76 dB
REM REPLAYGAIN_ALBUM_PEAK 0.998871
FILE "01 Our Secret World.flac" WAVE
  TRACK 01 AUDIO
    TITLE "Our Secret World"
    ISRC US7CE1000001
    REM REPLAYGAIN_TRACK_GAIN -7.65 dB
    REM REPLAYGAIN_TRACK_PEAK 0.992889
    INDEX 01 00:00:00
FILE "02 The Cloister.flac" WAVE
  TRACK 02 AUDIO
    TITLE "The Cloister"
    ISRC US7CE1000002
    REM REPLAYGAIN_TRACK_GAIN -7.11 dB
    REM REPLAYGAIN_TRACK_PEAK 0.989136
    INDEX 01 00:00:00
FILE "03 Zhivago.flac" WAVE
  TRACK 03 AUDIO
    TITLE "Zhivago"
    ISRC US7CE1000003
    REM REPLAYGAIN_TRACK_GAIN -6.84 dB
    REM REPLAYGAIN_TRACK_PEAK 0.993256
    INDEX 01 00:00:00
FILE "04 Dream of the Old.flac" WAVE
  TRACK 04 AUDIO
    TITLE "Dream of the Old"
    ISRC US7CE1000004
    REM REPLAYGAIN_TRACK_GAIN -5.81 dB
    REM REPLAYGAIN_TRACK_PEAK 0.976196
    INDEX 01 00:00:00
FILE "05 Turns.flac" WAVE
  TRACK 05 AUDIO
    TITLE "Turns"
    ISRC US7CE1000005
    REM REPLAYGAIN_TRACK_GAIN -6.95 dB
    REM REPLAYGAIN_TRACK_PEAK 0.998871
    INDEX 01 00:00:00
FILE "06 Use of Light.flac" WAVE
  TRACK 06 AUDIO
    TITLE "Use of Light"
    ISRC US7CE1000006
    REM REPLAYGAIN_TRACK_GAIN -6.59 dB
    REM REPLAYGAIN_TRACK_PEAK 0.983276
    INDEX 01 00:00:00
FILE "07 Path of the Heart.flac" WAVE
  TRACK 07 AUDIO
    TITLE "Path of the Heart"
    ISRC US7CE1000007
    REM REPLAYGAIN_TRACK_GAIN -6.12 dB
    REM REPLAYGAIN_TRACK_PEAK 0.983551
    INDEX 01 00:00:00
Download available for power users only.
11:00
709
Нет комментариев. Ваш будет первым!