Поиск

(modern jazz, piano) Kenny Werner - Beauty Secrets - - 2000, FLAC (image+.cue), lossless

(modern jazz, piano) Kenny Werner - Beauty Secrets - - 2000, FLAC (image+.cue), lossless
Треклист:
Kenny Werner - Beauty Secrets -
Жанр: modern jazz, piano
Год выпуска диска: 2000
Производитель диска: USA
Аудио кодек: FLAC
Тип рипа: image+.cue
Битрейт аудио: lossless
Продолжительность: 72
Трэклист:
1. With A Song In My Heart
2. Scufflin'
3. Beauty Secrets
4. Jackson Five
5. Walk In The Park
6. Bumper Jumper
7. Inner Region
8. Goblins
9. Little Appetites
10. Send In The Clowns
11. You Make Me Sing
12. Music From The Space
Доп. информация:
Состав:
Kenny Werner (vocals, piano, synthesizer);
Betty Buckley (vocals);
Joe Lovano, Tony Malaby (tenor saxophone);
Dave Ballou (trumpet);
Mark Feldman, Todd Reynolds, Heidi Stubner, Victor Schultz (violin);
Mary Wooten (cello);
Drew Gress, Johannes Weidenmuller (bass);
Billy Hart, Ari Hoenig (drums).
Записано: at Avatar Studios, New York, New York from April 6-9, 1999. Includes liner notes by Kenny Werner.
 
Отчёт EAC
Exact Audio Copy V0.99 prebeta 4 from 23. January 2008
EAC extraction logfile from 26. February 2009, 23:40
Kenny Werner / Beauty Secrets
Used drive : TEAC CD-W540E Adapter: 1 ID: 1
Read mode : Secure
Utilize accurate stream : Yes
Defeat audio cache : Yes
Make use of C2 pointers : No
Read offset correction : 97
Overread into Lead-In and Lead-Out : No
Fill up missing offset samples with silence : Yes
Delete leading and trailing silent blocks : No
Null samples used in CRC calculations : Yes
Used interface : Installed external ASPI interface
Used output format : User Defined Encoder
Selected bitrate : 896 kBit/s
Quality : High
Add ID3 tag : No
Command line compressor : C:\Program Files\Exact Audio Copy\Flac\flac.exe
Additional command line options : -8 -V -T "ARTIST=%a" -T "TITLE=%t" -T "ALBUM=%g" -T "DATE=%y" -T "TRACKNUMBER=%n" -T "GENRE=%m" -T "COMMENT=EAC FLAC -8" %s
TOC of the extracted CD
Track | Start | Length | Start sector | End sector
---------------------------------------------------------
1 | 0:00.00 | 6:56.57 | 0 | 31256
2 | 6:56.57 | 4:34.38 | 31257 | 51844
3 | 11:31.20 | 7:47.47 | 51845 | 86916
4 | 19:18.67 | 4:09.23 | 86917 | 105614
5 | 23:28.15 | 5:15.65 | 105615 | 129304
6 | 28:44.05 | 8:08.65 | 129305 | 165969
7 | 36:52.70 | 1:35.12 | 165970 | 173106
8 | 38:28.07 | 4:38.55 | 173107 | 194011
9 | 43:06.62 | 6:09.18 | 194012 | 221704
10 | 49:16.05 | 5:05.65 | 221705 | 244644
11 | 54:21.70 | 5:27.42 | 244645 | 269211
12 | 59:49.37 | 12:23.13 | 269212 | 324949
Range status and errors
Selected range
Filename E:\Новая папка\Kenny Werner - Beauty Secrets.wav
Peak level 100.0 %
Range quality 100.0 %
Copy CRC A6BE45D8
Copy OK
No errors occurred
End of status report
Any questions - support@pro-jazz.com
To become a power user - read FAQ.
14:55
370
Нет комментариев. Ваш будет первым!