Вы используете незарегистрированную версию компонента "Вкладки"!

Поиск

(Modern Jazz) Jim Hobbs / Joe Morris / Luther Gray - The Story of Mankind - 2008, APE (image+.cue), lossless

Треклист:
Jim Hobbs / Joe Morris / Luther Gray - The Story of Mankind
Жанр: Modern Jazz
Год выпуска диска: 2008
Производитель диска: Польша
Аудио кодек: APE
Тип рипа: image+.cue
Битрейт аудио: lossless
Продолжительность: 1:01:23
Трэклист:
1. Then a Genius Bethought Himself of the Use of Fire [08:28]
2. Lost in the Vastness of the Universe [14:54]
3. The Story of Word [11:00]
4. Gunpowder [13:04]
5. The Spreading of the Idea of Pop Sovereignty [13:55]
Jim Hobbs - alto saxophone
Joe Morris - bass
Luther Gray - drums
 
Отчёт EAC
Exact Audio Copy V0.99 prebeta 4 from 23. January 2008
Отчёт EAC об извлечении, выполненном 30. октября 2009, 22:54
Jim Hobbs - Joe Morris - Luther Gray / The Story of Mankind
Дисковод: ASUS DRW-20B1LT Adapter: 0 ID: 0
Режим чтения : Достоверность
Использование точного потока : Да
Отключение кэша аудио : Да
Использование указателей C2 : Нет
Коррекция смещения при чтении : 6
Способность читать области Lead-in и Lead-out : Нет
Заполнение пропущенных сэмплов тишиной : Да
Удаление блоков с тишиной в начале и конце : Нет
При вычислениях CRC использовались нулевые сэмплы : Да
Интерфейс : Установленный внешний ASPI-интерфейс
Выходной формат : Внутренние WAV-операции
Формат сэмплов : 44.100 Гц; 16 бит; стерео
TOC извлечённого CD
Трек | Старт | Длительность | Начальный сектор | Конечный сектор
---------------------------------------------------------------------
1 | 0:00.00 | 8:28.02 | 0 | 38101
2 | 8:28.02 | 14:54.59 | 38102 | 105210
3 | 23:22.61 | 11:00.37 | 105211 | 154747
4 | 34:23.23 | 13:04.03 | 154748 | 213550
5 | 47:27.26 | 13:55.30 | 213551 | 276205
Характеристики диапазона извлечения и сообщения об ошибках
Выбранный диапазон
Имя файла H:\черновики\Jim Hobbs - Joe Morris - Luther Gray - The Story of Mankind\Jim Hobbs - Joe Morris - Luther Gray - The Story of Mankind.wav
Пиковый уровень 98.0 %
Качество диапазона 100.0 %
CRC теста 1058CFB5
CRC копии 1058CFB5
Копирование... OK
Ошибок не произошло
AccurateRip: сводка
Трек 1 нет в базе данных
Трек 2 нет в базе данных
Трек 3 нет в базе данных
Трек 4 нет в базе данных
Трек 5 нет в базе данных
Ни одного трека нет в базе AccurateRip
Конец отчёта
Any questions -> support@pro-jazz.com. По всем вопросам пишите -> support@pro-jazz.com
15:58
146
Нет комментариев. Ваш будет первым!