Поиск

(Modern Jazz) James Carter Organ Trio - Out Of Nowhere - 2004, FLAC (tracks+.cue), lossless

(Modern Jazz) James Carter Organ Trio - Out Of Nowhere - 2004, FLAC (tracks+.cue), lossless
Треклист:
James Carter Organ Trio - Out Of Nowhere
Жанр: Modern Jazz
Год выпуска диска: 2005
Производитель диска: USA
Аудио кодек: FLAC
Тип рипа: tracks+.cue
Битрейт аудио: lossless
Продолжительность: 71:20
Трэклист:
1 Out Of NoWhere 10:55
2 Along Came Betty 14:30
3 Highjack 16:09
4 Song For Camille 12:33
5 Little Red Rooster 4:53
6 I Believe I Can Fly 12:27
Доп. информация:
James Carter, saxophones
Gerard Gibbs, organ
Leonard King, drums
Hamiet Bluett, baritone saxophone
James “Blood” Ulmer, guitar
Данный альбом - это запись выступления Джеймса Картера в Нью-Йоркском клубе «Blue Note» в составе органного трио. Вместе с приглашенными авангардным баритонистом Хамиет Блюетом и довольно нестандартным гитаристом Джеймсом «Blood» Ульмером, Картер сыграл потрясающую программу, слушая которую начинаешь верить в будущее джаза. Назвать эту работу серьезным, заранее отрепетированным и спродюссированным проектом нельзя. Уж больно разношерстен исполняемый материал, а аранжировки скорее напоминают экспромт, чем следствие многочасовых бдений. Скорее это внеплановый концерт в исполнении лучших на сегодняшний день джазовых музыкантов.
 
Отчет EAC
Exact Audio Copy V0.99 prebeta 5 from 4. May 2009
EAC extraction logfile from 20. July 2009, 23:32
James Carter / Out of Nowhere
Used drive : HL-DT-STCD-RW GCE-8526B Adapter: 1 ID: 1
Read mode : Secure
Utilize accurate stream : Yes
Defeat audio cache : Yes
Make use of C2 pointers : No
Read offset correction : 6
Overread into Lead-In and Lead-Out : No
Fill up missing offset samples with silence : Yes
Delete leading and trailing silent blocks : No
Null samples used in CRC calculations : Yes
Used interface : Native Win32 interface for Win NT & 2000
Gap handling : Appended to previous track
Used output format : User Defined Encoder
Selected bitrate : 768 kBit/s
Quality : High
Add ID3 tag : No
Command line compressor : C:\Program Files\Exact Audio Copy\FLAC\FLAC.EXE
Additional command line options : -8 -V -T "ARTIST=%a" -T "TITLE=%t" -T "ALBUM=%g" -T "DATE=%y" -T "TRACKNUMBER=%n" -T "GENRE=%m" -T "COMMENT=EAC FLAC -8" %s
TOC of the extracted CD
Track | Start | Length | Start sector | End sector
---------------------------------------------------------
1 | 0:00.00 | 10:52.51 | 0 | 48950
2 | 10:52.51 | 14:33.07 | 48951 | 114432
3 | 25:25.58 | 16:07.13 | 114433 | 186970
4 | 41:32.71 | 12:28.15 | 186971 | 243085
5 | 54:01.11 | 4:51.47 | 243086 | 264957
6 | 58:52.58 | 12:25.65 | 264958 | 320897
Track 1
Filename D:\Торрент\торрент проекты\James Carter - Out of Nowhere\01. James Carter - Out of Nowhere.wav
Pre-gap length 0:00:02.00
Peak level 98.7 %
Track quality 100.0 %
Test CRC 905396F5
Copy CRC 905396F5
Copy OK
Track 2
Filename D:\Торрент\торрент проекты\James Carter - Out of Nowhere\02. James Carter - Along Came Betty.wav
Peak level 98.7 %
Track quality 100.0 %
Test CRC 29076AAC
Copy CRC 29076AAC
Copy OK
Track 3
Filename D:\Торрент\торрент проекты\James Carter - Out of Nowhere\03. James Carter - Highjack.wav
Peak level 98.7 %
Track quality 100.0 %
Test CRC FFC1AAA1
Copy CRC FFC1AAA1
Copy OK
Track 4
Filename D:\Торрент\торрент проекты\James Carter - Out of Nowhere\04. James Carter - Song for Camille.wav
Peak level 98.7 %
Track quality 100.0 %
Test CRC 92519260
Copy CRC 92519260
Copy OK
Track 5
Filename D:\Торрент\торрент проекты\James Carter - Out of Nowhere\05. James Carter - Little Red Rooster.wav
Peak level 98.7 %
Track quality 100.0 %
Test CRC C6C39DFD
Copy CRC C6C39DFD
Copy OK
Track 6
Filename D:\Торрент\торрент проекты\James Carter - Out of Nowhere\06. James Carter - I Believe I Can Fly.wav
Peak level 98.7 %
Track quality 100.0 %
Test CRC 4865B434
Copy CRC 4865B434
Copy OK
No errors occurred
End of status report
Приватный:
Нет (DHT включён)
Размер:
495.69 Мб (519,764,930 байт) » файлов: 15
Участники:
0 раздают, 0 качают (0 участников всего)
Внешние участники:
3 раздают, 1 качают (4 участников всего) [ Обновить ]
For power users only: no seeders - write to support@pro-jazz.com. Для power user: нет сидеров - пишите на support@pro-jazz.com.
21:33
111
Нет комментариев. Ваш будет первым!