Поиск

(Modern Jazz) James Carter - Live at Baker's Keyboard Lounge (w/ David Murray, Johnny Griffin etc) - 2004, FLAC (image+.cue), lossless

(Modern Jazz) James Carter - Live at Baker's Keyboard Lounge (w/ David Murray, Johnny Griffin etc) - 2004, FLAC (image+.cue), lossless
Треклист:
James Carter - Live at Baker's Keyboard Lounge
Жанр: Modern Jazz
Год выпуска диска: 2004
Производитель диска: USA
Аудио кодек: FLAC
Тип рипа: image+.cue
Битрейт аудио: lossless
Продолжительность: 1:18:45
Трэклист:
1. Tricotism 9:23
2. Soul Street - 8:16
3. Freedom Jazz Dance - 9:26
4. I Can't Get Started - 7:09
5. Free And Easy - 10:39
6. Low Flame - 10:22
7. Sack Full Of Dreams - 11:59
8. Foot Pattin' - 11:28
Доп. информация:
James Carter - saxophones
Johnny Griffin, David Murray, Franz Jackson - tenor saxophone
Larry Smith - alto saxophone
Kenn Cox - piano
Gerard Gibbs - organ
Dwight Adams - trumpet
Ralphe Armstrong - bass
Leonard King, Richard "Pistol" Allen - drums
В дополнение к имеющейся, уже почти, полной дискографии Джэймса Картера на форуме, выкладываю вот такой альбомчик, записанный в живую на родине автора в Детройте с 3-мя "старичками" на тенорах в помощь. Приемственность поколений! Дэвид Маррей помог соло в 3-ем и 8-ом треках.
В общем диск действительно живенький вышел.
Кстати, признайтесь как часто вы обращаете внимание на имя звукорежисера на пластинках?
Здесь поработал один из моих фаворитов - Joe Ferla. Далеко немногие решаются записать в живую клавишные со второго трека - этакая а-капелла а-ля синтезированые 80-ые.
 
eac log
Exact Audio Copy V0.99 prebeta 3 from 28. July 2007
EAC extraction logfile from 2. November 2008, 22:31
James Carter / Live at Baker's Keyboard Lounge
Used drive : HL-DT-STDVDRAM GSA-4165B Adapter: 1 ID: 0
Read mode : Secure
Utilize accurate stream : Yes
Defeat audio cache : Yes
Make use of C2 pointers : No
Read offset correction : 667
Overread into Lead-In and Lead-Out : No
Fill up missing offset samples with silence : Yes
Delete leading and trailing silent blocks : No
Null samples used in CRC calculations : No
Used interface : Native Win32 interface for Win NT & 2000
Used output format : User Defined Encoder
Selected bitrate : 768 kBit/s
Quality : High
Add ID3 tag : No
Command line compressor : C:\Program Files\Exact Audio Copy\FLAC\FLAC.EXE
Additional command line options : -6 -V -T "ARTIST=%a" -T "TITLE=%t" -T "ALBUM=%g" -T "DATE=%y" -T "TRACKNUMBER=%n" -T "GENRE=%m" -T "COMMENT=%e" %s -o %d
TOC of the extracted CD
Track | Start | Length | Start sector | End sector
---------------------------------------------------------
1 | 0:00.00 | 9:23.00 | 0 | 42224
2 | 9:23.00 | 8:16.50 | 42225 | 79474
3 | 17:39.50 | 9:26.42 | 79475 | 121966
4 | 27:06.17 | 7:09.53 | 121967 | 154194
5 | 34:15.70 | 10:39.00 | 154195 | 202119
6 | 44:54.70 | 10:21.72 | 202120 | 248766
7 | 55:16.67 | 11:59.53 | 248767 | 302744
8 | 67:16.45 | 11:28.52 | 302745 | 354396
Range status and errors
Selected range
Filename F:\DATA\Music\Torrent\0_My_Music\James Carter - Live at Baker's Keyboard Lounge (2004)\James Carter - Live at Baker's Keyboard Lounge.wav
Peak level 100.0 %
Range quality 99.9 %
Copy CRC CB0C614E
Copy OK
No errors occurred
AccurateRip summary
Track 1 cannot be verified as accurate (confidence 3) [863B5477], AccurateRip returned [E99BEDF2]
Track 2 cannot be verified as accurate (confidence 3) [421DEC69], AccurateRip returned [D8758740]
Track 3 cannot be verified as accurate (confidence 3) [FF185304], AccurateRip returned [31E3C0A0]
Track 4 cannot be verified as accurate (confidence 3) [34B676B4], AccurateRip returned [371E8852]
Track 5 cannot be verified as accurate (confidence 3) [DA11D614], AccurateRip returned [F1E906D3]
Track 6 cannot be verified as accurate (confidence 3) [0B03BF56], AccurateRip returned [FDECD417]
Track 7 cannot be verified as accurate (confidence 3) [DB566C1A], AccurateRip returned [BA7DF87C]
Track 8 cannot be verified as accurate (confidence 3) [D5B5137C], AccurateRip returned [63A1D706]
No tracks could be verified as accurate
You may have a different pressing from the one(s) in the database
End of status report
Приватный:
Нет (DHT включён)
Размер:
490.24 Мб (514,055,216 байт) » файлов: 5
Участники:
0 раздают, 0 качают (0 участников всего)
Внешние участники:
2 раздают, 1 качают (3 участников всего) [ Обновить ]
For power users only: no seeders - write to support@pro-jazz.com. Для power user: нет сидеров - пишите на support@pro-jazz.com.
08:59
123
Нет комментариев. Ваш будет первым!