Вы используете незарегистрированную версию компонента "Вкладки"!

Поиск

(Modern Jazz, Free Jazz, Hat Hut) Max Nagl Ensemble - Ramasuri - 2001, FLAC (image+.cue), lossless

(Modern Jazz, Free Jazz, Hat Hut) Max Nagl Ensemble - Ramasuri - 2001, FLAC (image+.cue), lossless
Треклист:
Max Nagl Ensemble / Ramasuri
Жанр: Modern Jazz, Free Jazz
Страна-производитель диска: Switzerland
Год издания диска: 2001
Издатель (лейбл): Hat Hut
Номер по каталогу: hatOLOGY 575
Страна: Austria
Аудиокодек: FLAC (*.flac)
Тип рипа: image+.cue
Битрейт аудио: lossless
Продолжительность: 57:19
Источник (релизер): CD
Наличие сканов в содержимом раздачи: да
Треклист:
01 - Einleitung (3:06)
02 - Helikon (6:33)
03 - Striptease (6:51)
04 - Hairy Satin (8:09)
05 - Schwanenei (8:03)
06 - Schlitz (5:47)
07 - Flaçon (5:01)
08 - Kanon (8:07)
09 - Draweg (5:42)
 
Лог создания рипа
Exact Audio Copy V1.0 beta 2 from 29. April 2011
EAC extraction logfile from 5. August 2011, 21:45
Max Nagl Ensemble / Ramasuri
Used drive : Optiarc DVD RW AD-7170S Adapter: 1 ID: 1
Read mode : Secure
Utilize accurate stream : Yes
Defeat audio cache : Yes
Make use of C2 pointers : No
Read offset correction : 48
Overread into Lead-In and Lead-Out : No
Fill up missing offset samples with silence : Yes
Delete leading and trailing silent blocks : No
Null samples used in CRC calculations : Yes
Used interface : Native Win32 interface for Win NT & 2000
Used output format : User Defined Encoder
Selected bitrate : 32 kBit/s
Quality : High
Add ID3 tag : No
Command line compressor : C:\Program Files\FLAC\flac.exe
Additional command line options : -V -8 -T "Date=%year%" -T "Genre=%genre%" %source%
TOC of the extracted CD
Track | Start | Length | Start sector | End sector
---------------------------------------------------------
1 | 0:00.00 | 3:06.62 | 0 | 14011
2 | 3:06.62 | 6:33.00 | 14012 | 43486
3 | 9:39.62 | 6:51.00 | 43487 | 74311
4 | 16:30.62 | 8:09.00 | 74312 | 110986
5 | 24:39.62 | 8:02.38 | 110987 | 147174
6 | 32:42.25 | 5:46.37 | 147175 | 173161
7 | 38:28.62 | 5:01.00 | 173162 | 195736
8 | 43:29.62 | 8:06.50 | 195737 | 232236
9 | 51:36.37 | 5:42.38 | 232237 | 257924
Range status and errors
Selected range
Filename C:\Documents and Settings\User\Мои документы\Max Nagl Ensemble - Ramasuri (2001)\Max Nagl Ensemble - Ramasuri.wav
Peak level 99.1 %
Extraction speed 1.8 X
Range quality 99.9 %
Test CRC A17138D2
Copy CRC A17138D2
Copy OK
No errors occurred
AccurateRip summary
Track 1 accurately ripped (confidence 3) [33BCA1EF] (AR v1)
Track 2 accurately ripped (confidence 3) [44496589] (AR v1)
Track 3 accurately ripped (confidence 3) [D5F516D4] (AR v1)
Track 4 accurately ripped (confidence 3) [7C22C870] (AR v1)
Track 5 accurately ripped (confidence 3) [2A0BB333] (AR v1)
Track 6 accurately ripped (confidence 3) [75D3BD5D] (AR v1)
Track 7 accurately ripped (confidence 3) [D15FF3EB] (AR v1)
Track 8 accurately ripped (confidence 3) [DA1AEBFA] (AR v1)
Track 9 accurately ripped (confidence 3) [F81FF926] (AR v1)
All tracks accurately ripped
End of status report
==== Log checksum 520D3EAEC8AACE0CDEA07B08D6F2258C8BC66F57B291DA51FDA95B6F31DAF01E ====
 
Содержание индексной карты (.CUE)
REM GENRE Jazz
REM DATE 2001
REM DISCID 7B0D6F09
REM COMMENT "ExactAudioCopy v1.0b2"
PERFORMER "Max Nagl Ensemble"
TITLE "Ramasuri"
FILE "Max Nagl Ensemble - Ramasuri.flac" WAVE
TRACK 01 AUDIO
TITLE "Einleitung"
PERFORMER "Max Nagl Ensemble"
ISRC CH1310000291
INDEX 01 00:00:00
TRACK 02 AUDIO
TITLE "Helikon"
PERFORMER "Max Nagl Ensemble"
ISRC CH1310000292
INDEX 01 03:06:62
TRACK 03 AUDIO
TITLE "Striptease"
PERFORMER "Max Nagl Ensemble"
ISRC CH1310000293
INDEX 01 09:39:62
TRACK 04 AUDIO
TITLE "Hairy Satin"
PERFORMER "Max Nagl Ensemble"
ISRC CH1310000294
INDEX 01 16:30:62
TRACK 05 AUDIO
TITLE "Schwanenei"
PERFORMER "Max Nagl Ensemble"
ISRC CH1310000295
INDEX 01 24:39:62
TRACK 06 AUDIO
TITLE "Schlitz"
PERFORMER "Max Nagl Ensemble"
ISRC CH1310000296
INDEX 01 32:42:25
TRACK 07 AUDIO
TITLE "Flacon"
PERFORMER "Max Nagl Ensemble"
ISRC CH1310000297
INDEX 01 38:28:62
TRACK 08 AUDIO
TITLE "Kanon"
PERFORMER "Max Nagl Ensemble"
ISRC CH1310000298
INDEX 01 43:29:62
TRACK 09 AUDIO
TITLE "Draweg"
PERFORMER "Max Nagl Ensemble"
ISRC CH1310000299
INDEX 01 51:36:37
 
Доп. информация
Recorded live May 20, 2000 at "Porgy & Bess" Radiokulturhaus, Vienna
 
Об альбоме (сборнике)
Max Nagl's feeling for ambience is undoubtedly connected with his long experience as a composer of stage music for dance performances. Here, too, he creates music that does not exist for itself alone but, functioning as a backdrop, has to supply the emotional framework as well. "He produces music as furniture of the psyche," wrote Christian Scheib about this brilliant assimilator.
 
Состав
Joanna Lewis - violin
Melissa Coleman - cello
Noël Akchote - guitar
Thomas Gansch - trumpet
Max Nagl - saxophones
Otto Lechter - piano & accordion
Achim Tang - bass
Vincent Wizisperger - bass & tuba
Paul Skrepek - drums
Patrice Heral - percussion
По всем вопросам пишите личное сообщение пользователю M0p94ok.
15:47
198
Нет комментариев. Ваш будет первым!