Вы используете незарегистрированную версию компонента "Вкладки"!

Поиск

(Modern Jazz, Free Jazz) David Murray & Jack DeJohnette - In Our Style - 1986, FLAC (image+.cue), lossless

(Modern Jazz, Free Jazz) David Murray & Jack DeJohnette - In Our Style - 1986, FLAC (image+.cue), lossless
Треклист:
David Murray & Jack DeJohnette / In Our Style
Жанр: Modern Jazz, Free Jazz
Страна-производитель диска: Japan
Год издания диска: 1986
Издатель (лейбл): DIW
Номер по каталогу: DIW-819
Страна: USA
Аудиокодек: FLAC (*.flac)
Тип рипа: image+.cue
Битрейт аудио: lossless
Продолжительность: 44:28
Источник (релизер): CD
Наличие сканов в содержимом раздачи: да
Треклист:
01 - In Your Style (6:15)
02 - Tin Can Alley (5:39)
03 - Both Feet on the Ground (5:09)
04 - The Dice (8:17)
05 - Pastel Rhapsody (6:39)
06 - Great Peace (6:49)
07 - Kalimba (5:37)
 
Лог создания рипа
Exact Audio Copy V1.0 beta 2 from 29. April 2011
EAC extraction logfile from 25. July 2011, 10:15
David Murray & Jack DeJohnette / In Our Style
Used drive : Optiarc DVD RW AD-7240S Adapter: 2 ID: 0
Read mode : Secure
Utilize accurate stream : Yes
Defeat audio cache : Yes
Make use of C2 pointers : No
Read offset correction : 48
Overread into Lead-In and Lead-Out : No
Fill up missing offset samples with silence : Yes
Delete leading and trailing silent blocks : No
Null samples used in CRC calculations : Yes
Used interface : Native Win32 interface for Win NT & 2000
Used output format : User Defined Encoder
Selected bitrate : 768 kBit/s
Quality : High
Add ID3 tag : No
Command line compressor : C:\Program Files\Exact Audio Copy\FLAC\FLAC.EXE
Additional command line options : -6 -V -T "ARTIST=%artist%" -T "TITLE=%title%" -T "ALBUM=%albumtitle%" -T "DATE=%year%" -T "TRACKNUMBER=%tracknr%" -T "GENRE=%genre%" -T "COMMENT=%comment%" -T "BAND=%albuminterpret%" -T "COMPOSER=%composer%" %haslyrics%--ta
TOC of the extracted CD
Track | Start | Length | Start sector | End sector
---------------------------------------------------------
1 | 0:00.00 | 6:15.67 | 0 | 28191
2 | 6:15.67 | 5:39.60 | 28192 | 53676
3 | 11:55.52 | 5:09.60 | 53677 | 76911
4 | 17:05.37 | 8:17.45 | 76912 | 114231
5 | 25:23.07 | 6:39.15 | 114232 | 144171
6 | 32:02.22 | 6:49.13 | 144172 | 174859
7 | 38:51.35 | 5:37.10 | 174860 | 200144
Range status and errors
Selected range
Filename C:\Documents and Settings\User\Мои документы\David Murray & Jack DeJohnette - In Our Style (1986)\David Murray & Jack DeJohnette - In Our Style.wav
Peak level 100.0 %
Extraction speed 3.8 X
Range quality 99.9 %
Test CRC 5D11684E
Copy CRC 5D11684E
Copy OK
No errors occurred
AccurateRip summary
Track 1 cannot be verified as accurate (confidence 3) [62AE576E], AccurateRip returned [63C1812E] (AR v2)
Track 2 cannot be verified as accurate (confidence 3) [A1F0F90F], AccurateRip returned [7C0A24A1] (AR v2)
Track 3 cannot be verified as accurate (confidence 3) [DB958938], AccurateRip returned [4142865D] (AR v2)
Track 4 cannot be verified as accurate (confidence 3) [882444C0], AccurateRip returned [35A2A9E9] (AR v2)
Track 5 cannot be verified as accurate (confidence 3) [4EC1C59E], AccurateRip returned [5EC843AE] (AR v2)
Track 6 cannot be verified as accurate (confidence 3) [E8CC95EB], AccurateRip returned [4C2408D9] (AR v2)
Track 7 cannot be verified as accurate (confidence 3) [1754C4F5], AccurateRip returned [4E3E62A9] (AR v2)
No tracks could be verified as accurate
You may have a different pressing from the one(s) in the database
End of status report
==== Log checksum 1646DB7665D984B7992849BB4938F76F11F9AFAC731A9675C010D538A26FC357 ====
 
Содержание индексной карты (.CUE)
REM GENRE Jazz
REM DATE 1986
REM DISCID 540A6C07
REM COMMENT "ExactAudioCopy v1.0b2"
PERFORMER "David Murray & Jack DeJohnette"
TITLE "In Our Style"
FILE "David Murray & Jack DeJohnette - In Our Style.flac" WAVE
TRACK 01 AUDIO
TITLE "In Your Style"
PERFORMER "David Murray & Jack DeJohnette"
INDEX 01 00:00:00
TRACK 02 AUDIO
TITLE "Tin Can Alley"
PERFORMER "David Murray & Jack DeJohnette"
INDEX 01 06:15:67
TRACK 03 AUDIO
TITLE "Both Feet On The Ground"
PERFORMER "David Murray & Jack DeJohnette"
INDEX 00 11:54:12
INDEX 01 11:55:52
TRACK 04 AUDIO
TITLE "The Dice"
PERFORMER "David Murray & Jack DeJohnette"
INDEX 00 17:00:07
INDEX 01 17:05:37
TRACK 05 AUDIO
TITLE "Pastel Rhapsody"
PERFORMER "David Murray & Jack DeJohnette"
INDEX 00 25:20:35
INDEX 01 25:23:07
TRACK 06 AUDIO
TITLE "Great Peace"
PERFORMER "David Murray & Jack DeJohnette"
INDEX 00 31:59:22
INDEX 01 32:02:22
TRACK 07 AUDIO
TITLE "Kalimba"
PERFORMER "David Murray & Jack DeJohnette"
INDEX 00 38:47:35
INDEX 01 38:51:35
 
Доп. информация
Recorded at Sound Ideas, New York City on September 3 & 4, 1986.
 
Об альбоме (сборнике)
David Murray, doubling on tenor and bass clarinet, interacts with drummer Jack DeJohnette and (on two of the seven selections) bassist Fred Hopkins for a set of originals by Murray, DeJohnette and Butch Morris. The duo/trio explore a variety of moods with Murray's extroverted and advanced solos generally serving as the lead voice. Although an avant-garde set, this Japanese import has its mellow and melodic moments before the fire takes over again.
 
Состав
David Murray - tenor saxophone, bass clarinet
Jack DeJohnette - sonor drums, piano
Fred Hopkins - bass (cut 1 and 4 only)
Any questions -> support@pro-jazz.com. По всем вопросам пишите -> support@pro-jazz.com
15:13
188
Нет комментариев. Ваш будет первым!