Вы используете незарегистрированную версию компонента "Вкладки"!

Поиск

(Modern Jazz /Free Jazz/ CIMP) Adam Lane & John Tchicai - DOS - 2003, FLAC (image+.cue), lossless

(Modern Jazz /Free Jazz/ CIMP) Adam Lane & John Tchicai - DOS - 2003, FLAC (image+.cue), lossless
Треклист:
Adam Lane & John Tchicai - DOS
Жанр: Modern Jazz/Free Jazz/CIMP
Год выпуска диска: 2003
Производитель диска: USA
Фирма: CIMP
Аудио кодек: FLAC
Тип рипа: image+.cue
Битрейт аудио: lossless
Продолжительность: 69:48
Источник: рип со своего диска
Трэклист:
01 - To Avenue X
02 - Free
03 - Birthday Song
04 - Cycles
05 - Even the Stars Were Sad
06 - For Kowald
07 - Olingo
08 - Goro Tokimune
09 - Peace
10 - John and Johnny Riding the Clouds Over Big Sur
Доп. информация: Adam Lane - bass
John Tchicai - bass clarinet, tenor sax
Rec Oct 2 & 3 2002, NY (studio)
 
отчёт ЕАС
Exact Audio Copy V0.99 prebeta 5 from 4. May 2009
EAC extraction logfile from 4. April 2010, 13:53
Adam Lane & John Tchicai / DOS
Used drive : Optiarc DVD RW AD-5200S Adapter: 1 ID: 0
Read mode : Secure
Utilize accurate stream : Yes
Defeat audio cache : Yes
Make use of C2 pointers : No
Read offset correction : 48
Overread into Lead-In and Lead-Out : No
Fill up missing offset samples with silence : Yes
Delete leading and trailing silent blocks : No
Null samples used in CRC calculations : Yes
Used interface : Installed external ASPI interface
Used output format : User Defined Encoder
Selected bitrate : 192 kBit/s
Quality : High
Add ID3 tag : No
Command line compressor : C:\Program Files\Burrrn\flac.exe
Additional command line options : -T "DATE=%y" -T "GENRE=%m" -8 -V %s
TOC of the extracted CD
Track | Start | Length | Start sector | End sector
---------------------------------------------------------
1 | 0:00.00 | 4:25.42 | 0 | 19916
2 | 4:25.42 | 4:51.59 | 19917 | 41800
3 | 9:17.26 | 7:51.35 | 41801 | 77160
4 | 17:08.61 | 7:09.55 | 77161 | 109390
5 | 24:18.41 | 9:02.19 | 109391 | 150059
6 | 33:20.60 | 5:58.03 | 150060 | 176912
7 | 39:18.63 | 5:17.22 | 176913 | 200709
8 | 44:36.10 | 5:44.39 | 200710 | 226548
9 | 50:20.49 | 10:52.17 | 226549 | 275465
10 | 61:12.66 | 8:35.30 | 275466 | 314120
Range status and errors
Selected range
Filename F:\EAC\dos\Adam Lane & John Tchicai - DOS.wav
Peak level 91.9 %
Range quality 100.0 %
Copy CRC 7C00F8F0
Copy OK
No errors occurred
AccurateRip summary
Track 1 not present in database
Track 2 not present in database
Track 3 not present in database
Track 4 not present in database
Track 5 not present in database
Track 6 not present in database
Track 7 not present in database
Track 8 not present in database
Track 9 not present in database
Track 10 not present in database
None of the tracks are present in the AccurateRip database
End of status report
По всем вопросам пишите личное сообщение пользователю M0p94ok.
20:37
144
Нет комментариев. Ваш будет первым!