Поиск

(Modern Jazz, Folk-Jazz, Vocal Jazz) Bethany & Rufus - 900 Miles - 2007, FLAC (image+.cue) lossless

Треклист:
Bethany & Rufus / 900 Miles
Жанр: Modern Jazz, Folk-Jazz, Vocal Jazz, Beyond Jazz
Страна-производитель диска: Holland
Год издания диска: 2007
Издатель (лейбл): HYENA Records
Номер по каталогу: HYN 9353
Аудио кодек: FLAC (*.flac)
Тип рипа: image+.cue
Битрейт аудио: lossless
Продолжительность: 38:31
Источник (релизер): oStereo
Наличие сканов в содержимом раздачи: нет
Треклист:
1. 900 Miles
2. East Virginia
3. Linin' Track
4. The Swallow
5. St. James Infirmary
6. Isn't That So
7. If I Had My Way
8. No More Songs
9. Forgiveness
10. Asturiana
Это их дебютный альбом.
 
Лог создания рипа
Exact Audio Copy V0.99 prebeta 5 from 4. May 2009
Отчёт EAC об извлечении, выполненном 23. апреля 2010, 15:16
Bethany & Rufus / 900 Miles
Дисковод: MATSHITADVD+-RW UJ-857G Adapter: 0 ID: 0
Режим чтения : Достоверность
Использование точного потока : Да
Отключение кэша аудио : Да
Использование указателей C2 : Нет
Коррекция смещения при чтении : 102
Способность читать области Lead-in и Lead-out : Нет
Заполнение пропущенных сэмплов тишиной : Да
Удаление блоков с тишиной в начале и конце : Нет
При вычислениях CRC использовались нулевые сэмплы : Да
Интерфейс : Установленный внешний ASPI-интерфейс
Выходной формат : Пользовательский кодировщик
Выбранный битрейт : 768 kBit/s
Качество : Высокий
Добавление ID3-тэга : Нет
Утилита сжатия : C:\Program Files (x86)\Exact Audio Copy\Flac\flac.exe
Дополнительные параметры : -6 -V -T "ARTIST=%a" -T "TITLE=%t" -T "ALBUM=%g" -T "DATE=%y" -T "TRACKNUMBER=%n" -T "GENRE=%m" -T "COMMENT=%e" %s -o %d
TOC извлечённого CD
Трек | Старт | Длительность | Начальный сектор | Конечный сектор
---------------------------------------------------------------------
1 | 0:00.00 | 3:23.37 | 0 | 15261
2 | 3:23.37 | 3:13.13 | 15262 | 29749
3 | 6:36.50 | 3:31.35 | 29750 | 45609
4 | 10:08.10 | 4:25.06 | 45610 | 65490
5 | 14:33.16 | 3:46.30 | 65491 | 82470
6 | 18:19.46 | 3:56.15 | 82471 | 100185
7 | 22:15.61 | 3:47.16 | 100186 | 117226
8 | 26:03.02 | 4:48.70 | 117227 | 138896
9 | 30:51.72 | 3:15.26 | 138897 | 153547
10 | 34:07.23 | 4:24.03 | 153548 | 173350
Характеристики диапазона извлечения и сообщения об ошибках
Выбранный диапазон
Имя файла D:\Downloads\Music\Bethany & Rufus - 900 Miles\Bethany & Rufus - 900 Miles.wav
Пиковый уровень 99.9 %
Качество диапазона 100.0 %
CRC копии 37E989F8
Копирование... OK
Ошибок не произошло
AccurateRip: сводка
Трек 1 нет в базе данных
Трек 2 нет в базе данных
Трек 3 нет в базе данных
Трек 4 нет в базе данных
Трек 5 нет в базе данных
Трек 6 нет в базе данных
Трек 7 нет в базе данных
Трек 8 нет в базе данных
Трек 9 нет в базе данных
Трек 10 нет в базе данных
Ни одного трека нет в базе AccurateRip
Конец отчёта
 
Содержание индексной карты (.CUE)
REM GENRE Jazz
REM DATE 2007
REM DISCID 7A09070A
REM COMMENT ExactAudioCopy v0.99pb5
PERFORMER "Bethany & Rufus"
TITLE "900 Miles"
FILE "Bethany & Rufus -900 Miles.flac" WAVE
TRACK 01 AUDIO
TITLE "900 Miles"
INDEX 01 00:00:00
TRACK 02 AUDIO
TITLE "East Virginia"
INDEX 00 03:22:36
INDEX 01 03:23:37
TRACK 03 AUDIO
TITLE "Linin' Track"
INDEX 00 06:35:41
INDEX 01 06:36:50
TRACK 04 AUDIO
TITLE "The Swallow"
INDEX 00 10:06:50
INDEX 01 10:08:10
TRACK 05 AUDIO
TITLE "St. James Infirmary"
INDEX 00 14:30:47
INDEX 01 14:33:16
TRACK 06 AUDIO
TITLE "Isn't That So"
INDEX 01 18:19:46
TRACK 07 AUDIO
TITLE "If I Had My Way"
INDEX 01 22:15:61
TRACK 08 AUDIO
TITLE "No More Songs"
INDEX 01 26:03:02
TRACK 09 AUDIO
TITLE "Forgiveness"
INDEX 00 30:49:68
INDEX 01 30:51:72
TRACK 10 AUDIO
TITLE "Asturiana"
INDEX 00 34:04:32
INDEX 01 34:07:23
 
Об альбоме (сборнике)
"Bethany delivers low, smoky tones that call to mind Nina Simone or Cassandra Wilson delving into field recordings...Rufus bows and plucks [his] cello with dramatic tension and stately grace. With stunning imagination, Bethany & Rufus move music linked with her father Peter Yarrow's era in arresting new directions. Bravo!"
- Goldmine
It often seems that the best music being made today completely defies category. The most exciting artists are mixing influences from dusty American field recordings to modern jazz, from delicate folk pop to the Griot traditions of Africa. Bethany & Rufus are just such an example, and yet they take it a step further by taking a step back. The duo, comprised of the honey-voiced Bethany Yarrow (daughter of famous folk singer Peter Yarrow) and the world-renowned cellist Rufus Cappadocia, refine their vast influences through the minimalist combination of voice and cello, while focusing their attention on traditional songs from America’s gritty folk past such as “St. James Infirmary,” “East Virginia” and “Linin’ Track.” The results on their debut album, 900 Miles, are stark, haunting and utterly gorgeous. It can draw comparisons as easily to Cassandra Wilson as the Cowboy Junkies, Nina Simone as Jolie Holland. With a national tour on the horizon and festival bookings already stacking up for 2007, it’s only a matter of time until Bethany & Rufus are themselves influencing a new generation of artists.
http://www.hyenarecords.com/catalog/bethanyandrufus
 
Состав
Bethany Yarrow: vocals, guitar, percussion;
Rufus Cappadocia: five-string cello.
20:55
345
Нет комментариев. Ваш будет первым!