Вы используете незарегистрированную версию компонента "Вкладки"!

Поиск

(modern jazz) FGHR - Going Home - 2009, FLAC (tracks+.cue), lossless

Треклист:
FGHR
Going Home
Жанр: modern jazz
Год издания диска: 2009
Издатель (лейбл): Which Way Music
Номер по каталогу: WWM005
Аудио кодек: FLAC (*.flac)
Тип рипа: tracks+.cue
Битрейт аудио: lossless
Продолжительность: 00:55:36
Источник (релизер): waffles.fm [Balty]
Наличие сканов в содержимом раздачи: нет
Треклист:
01. Hornsby
02. The (Other) Road Home
03. Desertion
04. Exaltation
05. Sevamba
06. St Ali
07. Strange Loops
08. Redsette
09. Something Something
10. Pushka
11. Re: Song I Knew
12. Three Miles Big
13. Affirmation
Исполнители:
Darryn Farrugia - (drums/percussion)
Leonard Grigoryan - (guitars/voice)
Luke Howard - (piano)
Ben Robertson - (bass)
Гости:
Emma Gilmartin - (voice)
Alex Pertout - (percussion)
Anthony Schulz - (accordian)
 
Лог создания рипа
X Lossless Decoder version 20100711 (120.5)
XLD extraction logfile from 2010-07-15 19:09:43 +1000
FGHR / Going Home
Used drive : HL-DT-ST DVDRW GSA-S10N (revision AP12)
Use cdparanoia mode : YES (CDParanoia III 10.2 engine)
Disable audio cache : OK for the drive with cache less than 2750KB
Make use of C2 pointers : NO
Read offset correction : 667
Max retry count : 100
Gap status : Analyzed, Appended (except HTOA)
TOC of the extracted CD
Track | Start | Length | Start sector | End sector
---------------------------------------------------------
1 | 00:00:00 | 05:31:12 | 0 | 24836
2 | 05:31:12 | 04:21:68 | 24837 | 44479
3 | 09:53:05 | 05:49:27 | 44480 | 70681
4 | 15:42:32 | 03:56:73 | 70682 | 88454
5 | 19:39:30 | 02:03:46 | 88455 | 97725
6 | 21:43:01 | 04:02:57 | 97726 | 115932
7 | 25:45:58 | 01:05:53 | 115933 | 120860
8 | 26:51:36 | 04:46:60 | 120861 | 142370
9 | 31:38:21 | 06:30:74 | 142371 | 171694
10 | 38:09:20 | 04:39:11 | 171695 | 192630
11 | 42:48:31 | 04:36:63 | 192631 | 213393
12 | 47:25:19 | 05:21:70 | 213394 | 237538
13 | 52:47:14 | 02:53:49 | 237539 | 250562
All Tracks
Album gain : -5.86 dB
Peak : 0.970612
Track 01
Filename : /XLD Rips/01 - Hornsby.flac
/XLD Rips/01 - Hornsby.mp3
Pre-gap length : 00:02:00
Track gain : -7.44 dB
Peak : 0.950256
CRC32 hash (test run) : 53537E0C
CRC32 hash : 53537E0C
CRC32 hash (skip zero) : BDF24089
AccurateRip signature : 4E0F8A6B
->Track not present in AccurateRip database.
Statistics
Read error : 0
Skipped (treated as error) : 0
Edge jitter error (maybe fixed) : 0
Atom jitter error (maybe fixed) : 0
Drift error (maybe fixed) : 0
Dropped bytes error (maybe fixed) : 0
Duplicated bytes error (maybe fixed) : 0
Inconsistency in error sectors : 0
Track 02
Filename : /XLD Rips/02 - The (Other) Road Home.flac
/XLD Rips/02 - The (Other) Road Home.mp3
Pre-gap length : 00:01:43
Track gain : -5.63 dB
Peak : 0.939453
CRC32 hash (test run) : FD29A579
CRC32 hash : FD29A579
CRC32 hash (skip zero) : C7262A6C
AccurateRip signature : 92E409CB
->Track not present in AccurateRip database.
Statistics
Read error : 0
Skipped (treated as error) : 0
Edge jitter error (maybe fixed) : 0
Atom jitter error (maybe fixed) : 0
Drift error (maybe fixed) : 0
Dropped bytes error (maybe fixed) : 0
Duplicated bytes error (maybe fixed) : 0
Inconsistency in error sectors : 0
Track 03
Filename : /XLD Rips/03 - Desertion.flac
/XLD Rips/03 - Desertion.mp3
Track gain : -5.67 dB
Peak : 0.932220
CRC32 hash (test run) : 47DDC775
CRC32 hash : 47DDC775
CRC32 hash (skip zero) : 72A15705
AccurateRip signature : 4F41A7FD
->Track not present in AccurateRip database.
Statistics
Read error : 0
Skipped (treated as error) : 0
Edge jitter error (maybe fixed) : 0
Atom jitter error (maybe fixed) : 0
Drift error (maybe fixed) : 0
Dropped bytes error (maybe fixed) : 0
Duplicated bytes error (maybe fixed) : 0
Inconsistency in error sectors : 0
Track 04
Filename : /XLD Rips/04 - Exaltation.flac
/XLD Rips/04 - Exaltation.mp3
Track gain : -4.42 dB
Peak : 0.932220
CRC32 hash (test run) : 1BAB41E9
CRC32 hash : 1BAB41E9
CRC32 hash (skip zero) : 63169E00
AccurateRip signature : 97CD492C
->Track not present in AccurateRip database.
Statistics
Read error : 0
Skipped (treated as error) : 0
Edge jitter error (maybe fixed) : 0
Atom jitter error (maybe fixed) : 0
Drift error (maybe fixed) : 0
Dropped bytes error (maybe fixed) : 0
Duplicated bytes error (maybe fixed) : 0
Inconsistency in error sectors : 0
Track 05
Filename : /XLD Rips/05 - Sevamba.flac
/XLD Rips/05 - Sevamba.mp3
Track gain : -5.29 dB
Peak : 0.936005
CRC32 hash (test run) : 64331C64
CRC32 hash : 64331C64
CRC32 hash (skip zero) : 685F1257
AccurateRip signature : 13E0C7F4
->Track not present in AccurateRip database.
Statistics
Read error : 0
Skipped (treated as error) : 0
Edge jitter error (maybe fixed) : 0
Atom jitter error (maybe fixed) : 0
Drift error (maybe fixed) : 0
Dropped bytes error (maybe fixed) : 0
Duplicated bytes error (maybe fixed) : 0
Inconsistency in error sectors : 0
Track 06
Filename : /XLD Rips/06 - St. Ali.flac
/XLD Rips/06 - St. Ali.mp3
Track gain : -7.92 dB
Peak : 0.970612
CRC32 hash (test run) : D4C601E2
CRC32 hash : D4C601E2
CRC32 hash (skip zero) : 8275DF84
AccurateRip signature : 9B53CEE3
->Track not present in AccurateRip database.
Statistics
Read error : 0
Skipped (treated as error) : 0
Edge jitter error (maybe fixed) : 0
Atom jitter error (maybe fixed) : 0
Drift error (maybe fixed) : 0
Dropped bytes error (maybe fixed) : 0
Duplicated bytes error (maybe fixed) : 0
Inconsistency in error sectors : 0
Track 07
Filename : /XLD Rips/07 - Strange Loops.flac
/XLD Rips/07 - Strange Loops.mp3
Track gain : -2.93 dB
Peak : 0.929688
CRC32 hash (test run) : 67939511
CRC32 hash : 67939511
CRC32 hash (skip zero) : 68358118
AccurateRip signature : 23E7D19F
->Track not present in AccurateRip database.
Statistics
Read error : 0
Skipped (treated as error) : 0
Edge jitter error (maybe fixed) : 0
Atom jitter error (maybe fixed) : 0
Drift error (maybe fixed) : 0
Dropped bytes error (maybe fixed) : 0
Duplicated bytes error (maybe fixed) : 0
Inconsistency in error sectors : 0
Track 08
Filename : /XLD Rips/08 - Redsette.flac
/XLD Rips/08 - Redsette.mp3
Track gain : -4.95 dB
Peak : 0.952820
CRC32 hash (test run) : B45F6BED
CRC32 hash : B45F6BED
CRC32 hash (skip zero) : D6A1486D
AccurateRip signature : 67864DAB
->Track not present in AccurateRip database.
Statistics
Read error : 0
Skipped (treated as error) : 0
Edge jitter error (maybe fixed) : 0
Atom jitter error (maybe fixed) : 0
Drift error (maybe fixed) : 0
Dropped bytes error (maybe fixed) : 0
Duplicated bytes error (maybe fixed) : 0
Inconsistency in error sectors : 0
Track 09
Filename : /XLD Rips/09 - Something Something.flac
/XLD Rips/09 - Something Something.mp3
Pre-gap length : 00:00:69
Track gain : -4.09 dB
Peak : 0.938293
CRC32 hash (test run) : D7EFD710
CRC32 hash : D7EFD710
CRC32 hash (skip zero) : AAD11CC7
AccurateRip signature : 7A7A5531
->Track not present in AccurateRip database.
Statistics
Read error : 0
Skipped (treated as error) : 0
Edge jitter error (maybe fixed) : 0
Atom jitter error (maybe fixed) : 0
Drift error (maybe fixed) : 0
Dropped bytes error (maybe fixed) : 0
Duplicated bytes error (maybe fixed) : 0
Inconsistency in error sectors : 0
Track 10
Filename : /XLD Rips/10 - Pushka.flac
/XLD Rips/10 - Pushka.mp3
Track gain : -6.23 dB
Peak : 0.932220
CRC32 hash (test run) : 9D8A0894
CRC32 hash : 9D8A0894
CRC32 hash (skip zero) : E664860C
AccurateRip signature : 169B8D82
->Track not present in AccurateRip database.
Statistics
Read error : 0
Skipped (treated as error) : 0
Edge jitter error (maybe fixed) : 0
Atom jitter error (maybe fixed) : 0
Drift error (maybe fixed) : 0
Dropped bytes error (maybe fixed) : 0
Duplicated bytes error (maybe fixed) : 0
Inconsistency in error sectors : 0
Track 11
Filename : /XLD Rips/11 - RE: Song I Knew.flac
/XLD Rips/11 - RE: Song I Knew.mp3
Track gain : -5.06 dB
Peak : 0.939514
CRC32 hash (test run) : F5AB09FD
CRC32 hash : F5AB09FD
CRC32 hash (skip zero) : AF4110CF
AccurateRip signature : DAF79A89
->Track not present in AccurateRip database.
Statistics
Read error : 0
Skipped (treated as error) : 0
Edge jitter error (maybe fixed) : 0
Atom jitter error (maybe fixed) : 0
Drift error (maybe fixed) : 0
Dropped bytes error (maybe fixed) : 0
Duplicated bytes error (maybe fixed) : 0
Inconsistency in error sectors : 0
Track 12
Filename : /XLD Rips/12 - Three Miles Big.flac
/XLD Rips/12 - Three Miles Big.mp3
Track gain : -5.48 dB
Peak : 0.936157
CRC32 hash (test run) : B1EAC2F7
CRC32 hash : B1EAC2F7
CRC32 hash (skip zero) : C6104EBF
AccurateRip signature : F90C848E
->Track not present in AccurateRip database.
Statistics
Read error : 0
Skipped (treated as error) : 0
Edge jitter error (maybe fixed) : 0
Atom jitter error (maybe fixed) : 0
Drift error (maybe fixed) : 0
Dropped bytes error (maybe fixed) : 0
Duplicated bytes error (maybe fixed) : 0
Inconsistency in error sectors : 0
Track 13
Filename : /XLD Rips/13 - Affirmation.flac
/XLD Rips/13 - Affirmation.mp3
Pre-gap length : 00:01:32
Track gain : -3.52 dB
Peak : 0.935883
CRC32 hash (test run) : 84285096
CRC32 hash : 84285096
CRC32 hash (skip zero) : 5A55A5F7
AccurateRip signature : 88248F94
->Track not present in AccurateRip database.
Statistics
Read error : 0
Skipped (treated as error) : 0
Edge jitter error (maybe fixed) : 0
Atom jitter error (maybe fixed) : 0
Drift error (maybe fixed) : 0
Dropped bytes error (maybe fixed) : 0
Duplicated bytes error (maybe fixed) : 0
Inconsistency in error sectors : 0
No errors occurred
End of status report
 
Содержание индексной карты (.cue)
TITLE "Going Home"
PERFORMER "FGHR"
CATALOG 9326425803585
REM GENRE "Jazz"
REM DATE 2009
REM DISCNUMBER 1
REM TOTALDISCS 1
REM DISCID AD0D0C0D
FILE "01 - Hornsby.wav" WAVE
TRACK 01 AUDIO
TITLE "Hornsby"
ISRC AUQY20900011
INDEX 01 00:00:00
TRACK 02 AUDIO
TITLE "The (Other) Road Home"
ISRC AUQY20900012
INDEX 00 05:29:44
FILE "02 - The (Other) Road Home.wav" WAVE
INDEX 01 00:00:00
FILE "03 - Desertion.wav" WAVE
TRACK 03 AUDIO
TITLE "Desertion"
ISRC AUQY20900013
INDEX 01 00:00:00
FILE "04 - Exaltation.wav" WAVE
TRACK 04 AUDIO
TITLE "Exaltation"
ISRC AUQY20900014
INDEX 01 00:00:00
FILE "05 - Sevamba.wav" WAVE
TRACK 05 AUDIO
TITLE "Sevamba"
ISRC AUQY20900015
INDEX 01 00:00:00
FILE "06 - St. Ali.wav" WAVE
TRACK 06 AUDIO
TITLE "St. Ali"
ISRC AUQY20900016
INDEX 01 00:00:00
FILE "07 - Strange Loops.wav" WAVE
TRACK 07 AUDIO
TITLE "Strange Loops"
ISRC AUQY20900017
INDEX 01 00:00:00
FILE "08 - Redsette.wav" WAVE
TRACK 08 AUDIO
TITLE "Redsette"
ISRC AUQY20900018
INDEX 01 00:00:00
TRACK 09 AUDIO
TITLE "Something Something"
ISRC AUQY20900019
INDEX 00 04:45:66
FILE "09 - Something Something.wav" WAVE
INDEX 01 00:00:00
FILE "10 - Pushka.wav" WAVE
TRACK 10 AUDIO
TITLE "Pushka"
ISRC AUQY20900020
INDEX 01 00:00:00
FILE "11 - RE: Song I Knew.wav" WAVE
TRACK 11 AUDIO
TITLE "RE: Song I Knew"
ISRC AUQY20900021
INDEX 01 00:00:00
FILE "12 - Three Miles Big.wav" WAVE
TRACK 12 AUDIO
TITLE "Three Miles Big"
ISRC AUQY20900022
INDEX 01 00:00:00
TRACK 13 AUDIO
TITLE "Affirmation"
ISRC AUQY20900023
INDEX 00 05:20:38
FILE "13 - Affirmation.wav" WAVE
INDEX 01 00:00:00
Any questions -> support@pro-jazz.com. По всем вопросам пишите -> support@pro-jazz.com
03:48
137
Нет комментариев. Ваш будет первым!