Вы используете незарегистрированную версию компонента "Вкладки"!

Поиск

(Modern Jazz, Avant-Garde) Hamiet Bluiett & Larry Willis - If Trees Could Talk - 1999, FLAC (image+.cue) lossless

Треклист:
Hamiet Bluiett & Larry Willis / If Trees Could Talk
Жанр: Modern Jazz, Avant-Garde
Страна-производитель диска: USA
Год издания диска: 1999
Издатель (лейбл): Mapleshade records
Номер по каталогу: #06332
Страна: USA
Аудио кодек: FLAC (*.flac)
Тип рипа: image+.cue
Битрейт аудио: lossless
Продолжительность: 58:20
Источник (релизер): oStereo
Наличие сканов в содержимом раздачи: нет
Треклист:
1.The African (H.Bluiett)
2.Straight Ahead—A Day On The Plantation (H.Bluiett)
3.Uncle Adolf, Uncle Aaron (H.Bluiett)
4.Ask Me Now (T.Monk)
5.Whenever We Could (H.Bluiett)
6.Ballad For E.K. (L.Willis)
7.Cherry Pink, Apple Blossom White (J.Richardson Jr.)
8.Ballad For Frederick (L.Willis)
9.If Trees Could Talk (H.Bluiett,L.Willis)
10.Bro' Blue (J.Ware)
11.Nightfall (L.Willis)
12.Some Other (Schizophrenic) Blues (J.Coltrane)
13.Aunt Hallie (H.Bluiett)
14.Runaway (H.Bluiett)
 
Лог создания рипа
Exact Audio Copy V1.0 beta 1 from 15. November 2010
EAC extraction logfile from 19. February 2011, 17:31
Hamiet Bluiett / If Trees Could Talk
Used drive : HL-DT-STDVD-RAM GSA-H55N Adapter: 0 ID: 0
Read mode : Secure
Utilize accurate stream : Yes
Defeat audio cache : Yes
Make use of C2 pointers : No
Read offset correction : 102
Overread into Lead-In and Lead-Out : No
Fill up missing offset samples with silence : Yes
Delete leading and trailing silent blocks : No
Null samples used in CRC calculations : Yes
Used interface : Native Win32 interface for Win NT & 2000
Used output format : User Defined Encoder
Selected bitrate : 128 kBit/s
Quality : High
Add ID3 tag : No
Command line compressor : C:\Program Files\Exact Audio Copy\FLAC\FLAC.EXE
Additional command line options : -8 -V %s
TOC of the extracted CD
Track | Start | Length | Start sector | End sector
---------------------------------------------------------
1 | 0:00.00 | 2:11.16 | 0 | 9840
2 | 2:11.16 | 6:52.27 | 9841 | 40767
3 | 9:03.43 | 2:05.05 | 40768 | 50147
4 | 11:08.48 | 5:44.33 | 50148 | 75980
5 | 16:53.06 | 3:15.74 | 75981 | 90679
6 | 20:09.05 | 2:26.15 | 90680 | 101644
7 | 22:35.20 | 4:22.22 | 101645 | 121316
8 | 26:57.42 | 8:42.51 | 121317 | 160517
9 | 35:40.18 | 4:46.62 | 160518 | 182029
10 | 40:27.05 | 4:09.57 | 182030 | 200761
11 | 44:36.62 | 4:23.54 | 200762 | 220540
12 | 49:00.41 | 3:38.21 | 220541 | 236911
13 | 52:38.62 | 2:33.33 | 236912 | 248419
14 | 55:12.20 | 3:08.31 | 248420 | 262550
Range status and errors
Selected range
Filename D:\RIP для ФТП\Hamiet Bluiett - If Trees Could Talk.wav
Peak level 100.0 %
Extraction speed 0.1 X
Range quality 100.0 %
Test CRC B2B6BB5F
Copy CRC B2B6BB5F
Copy OK
No errors occurred
AccurateRip summary
Track 1 accurately ripped (confidence 4) [328D0DFE]
Track 2 accurately ripped (confidence 4) [96075B0F]
Track 3 accurately ripped (confidence 4) [4FE11E20]
Track 4 accurately ripped (confidence 4) [C265B97D]
Track 5 accurately ripped (confidence 4) [33A03D69]
Track 6 accurately ripped (confidence 3) [E7B8181C]
Track 7 accurately ripped (confidence 4) [3E6812D2]
Track 8 accurately ripped (confidence 4) [87AFF34D]
Track 9 accurately ripped (confidence 4) [C574B940]
Track 10 accurately ripped (confidence 4) [D0BE4104]
Track 11 accurately ripped (confidence 4) [C4AAA8E1]
Track 12 accurately ripped (confidence 4) [50C25006]
Track 13 accurately ripped (confidence 4) [F2C19EC2]
Track 14 accurately ripped (confidence 4) [B7EFBF83]
All tracks accurately ripped
End of status report
 
Содержание индексной карты (.CUE)
REM GENRE Jazz
REM DATE 1999
REM DISCID A80DAC0E
REM COMMENT ExactAudioCopy v1.0b1
PERFORMER "Hamiet Bluiett"
TITLE "If Trees Could Talk"
FILE "Hamiet Bluiett - If Trees Could Talk.flac" WAVE
TRACK 01 AUDIO
TITLE "The African"
INDEX 01 00:00:00
TRACK 02 AUDIO
TITLE "Straight Ahead -- A Day On The Plantation"
INDEX 00 02:08:18
INDEX 01 02:11:16
TRACK 03 AUDIO
TITLE "Uncle Adolf, Uncle Aaron"
INDEX 00 09:01:43
INDEX 01 09:03:43
TRACK 04 AUDIO
TITLE "Ask Me Now"
INDEX 00 11:06:47
INDEX 01 11:08:48
TRACK 05 AUDIO
TITLE "Whenever We Could"
INDEX 00 16:50:08
INDEX 01 16:53:06
TRACK 06 AUDIO
TITLE "Ballad For E.K."
INDEX 00 20:07:04
INDEX 01 20:09:05
TRACK 07 AUDIO
TITLE "Cherry Pink, Apple Blossom White"
INDEX 00 22:33:20
INDEX 01 22:35:20
TRACK 08 AUDIO
TITLE "Ballad For Frederick"
INDEX 00 26:56:64
INDEX 01 26:57:42
TRACK 09 AUDIO
TITLE "If Trees Could Talk"
INDEX 00 35:39:51
INDEX 01 35:40:18
TRACK 10 AUDIO
TITLE "Bro' Blue"
INDEX 00 40:24:43
INDEX 01 40:27:05
TRACK 11 AUDIO
TITLE "Nightfall"
INDEX 00 44:34:61
INDEX 01 44:36:62
TRACK 12 AUDIO
TITLE "Some Other (Schizophrenic) Blues"
INDEX 00 48:58:41
INDEX 01 49:00:41
TRACK 13 AUDIO
TITLE "Aunt Hallie"
INDEX 00 52:36:05
INDEX 01 52:38:62
TRACK 14 AUDIO
TITLE "Runaway"
INDEX 00 55:10:62
INDEX 01 55:12:20
Доп. информация: http://www.mapleshaderecords.com/cds/06332.php
 
Об альбоме (сборнике)
These beautiful bari sax/piano duos were the first encounter between these jazz giants. “Willis complements Bluiett beautifully, supporting him with chiming chords and elaborating on the melodies…31/2 Stars,” according to Down Beat. This recording lights up the gorgeous contrasts between Bluiett’s huge R&B-based sound and Larry’s lush, romantic piano harmonies. They swing from stride and Monk to loft jazz, Coltrane and free improvisation. The Absolute Sound says “…an achingly lovely…often magical session…Sound quality is superb.”
 
Состав
Larry Willis, piano
Hamiet Bluiett, baritone sax
По всем вопросам пишите личное сообщение пользователю M0p94ok.
09:12
365
Нет комментариев. Ваш будет первым!