Вы используете незарегистрированную версию компонента "Вкладки"!

Поиск

(Modern Jazz/ Avant-Garde) Blue Cranes - коллекция альбомов (4 CD's) - 2007 - 2011, FLAC (tracks+.cue), lossless

Треклист:

Жанр: Modern Jazz/ Avant-Garde
Страна: USA
Год издания: 2007 - 2011
Аудиокодек: FLAC
Тип рипа: tracks+.CUE
Битрейт аудио: lossless
Продолжительность: 2:43:19
Источник: what.cd
Наличие сканов в содержимом раздачи: нет Релиз в МР3
 
(2007) Lift Music! Flown Music! - 52:26
01. Returning to Portland (7:17)
02. Aluvion/Song for Audrey (6:06)
03. Polaris (7:19)
04. Cristo de Palacaguina (7:08)
05. Coming Up Roses (4:09)
06. Dear Howard (8:01)
07. Greenwood (4:45)
08. Thirty Ought Six Circus (7:40)
 
EAC log
Exact Audio Copy V0.99 prebeta 5 from 4. May 2009
EAC extraction logfile from 18. January 2011, 14:50
Blue Cranes / Lift Music! Flown Music!
Used drive : PIONEER DVD-RW DVR-216D Adapter: 0 ID: 0
Read mode : Secure
Utilize accurate stream : Yes
Defeat audio cache : Yes
Make use of C2 pointers : No
Read offset correction : 96
Overread into Lead-In and Lead-Out : No
Fill up missing offset samples with silence : Yes
Delete leading and trailing silent blocks : No
Null samples used in CRC calculations : Yes
Used interface : Native Win32 interface for Win NT & 2000
Gap handling : Appended to previous track
Used output format : User Defined Encoder
Selected bitrate : 768 kBit/s
Quality : High
Add ID3 tag : No
Command line compressor : C:\Program Files\Exact Audio Copy\FLAC\FLAC.EXE
Additional command line options : -8 -V -T "ARTIST=%a" -T "TITLE=%t" -T "ALBUM=%g" -T "DATE=%y" -T "TRACKNUMBER=%n" -T "GENRE=%m" -T "COMMENT=%e" %s -o %d
TOC of the extracted CD
Track | Start | Length | Start sector | End sector
---------------------------------------------------------
1 | 0:00.00 | 7:16.40 | 0 | 32739
2 | 7:16.40 | 6:06.22 | 32740 | 60211
3 | 13:22.62 | 7:19.29 | 60212 | 93165
4 | 20:42.16 | 7:08.35 | 93166 | 125300
5 | 27:50.51 | 4:09.20 | 125301 | 143995
6 | 31:59.71 | 8:01.00 | 143996 | 180070
7 | 40:00.71 | 4:45.17 | 180071 | 201462
8 | 44:46.13 | 7:39.58 | 201463 | 235945
Track 1
Filename E:\TMP\_MEGATASK\Blue Cranes - (2007) - Lift Music! Flown Music!\Blue Cranes - 01 - Returning to Portland.wav
Pre-gap length 0:00:02.00
Peak level 99.2 %
Track quality 100.0 %
Test CRC 8F41C31A
Copy CRC 8F41C31A
Accurately ripped (confidence 1) [32D73264]
Copy OK
Track 2
Filename E:\TMP\_MEGATASK\Blue Cranes - (2007) - Lift Music! Flown Music!\Blue Cranes - 02 - Aluviуn,Song for Audrey.wav
Peak level 100.0 %
Track quality 100.0 %
Test CRC D16B1FD2
Copy CRC D16B1FD2
Accurately ripped (confidence 1) [EBEA99C8]
Copy OK
Track 3
Filename E:\TMP\_MEGATASK\Blue Cranes - (2007) - Lift Music! Flown Music!\Blue Cranes - 03 - Polaris.wav
Peak level 100.0 %
Track quality 100.0 %
Test CRC 89F2FD77
Copy CRC 89F2FD77
Accurately ripped (confidence 1) [212B8F30]
Copy OK
Track 4
Filename E:\TMP\_MEGATASK\Blue Cranes - (2007) - Lift Music! Flown Music!\Blue Cranes - 04 - Cristo de Palacagьina.wav
Peak level 96.6 %
Track quality 100.0 %
Test CRC 5101E9E9
Copy CRC 5101E9E9
Accurately ripped (confidence 1) [0B722C60]
Copy OK
Track 5
Filename E:\TMP\_MEGATASK\Blue Cranes - (2007) - Lift Music! Flown Music!\Blue Cranes - 05 - Coming Up Roses.wav
Peak level 100.0 %
Track quality 100.0 %
Test CRC D6CFFD16
Copy CRC D6CFFD16
Accurately ripped (confidence 1) [7237BD6B]
Copy OK
Track 6
Filename E:\TMP\_MEGATASK\Blue Cranes - (2007) - Lift Music! Flown Music!\Blue Cranes - 06 - Dear Howard.wav
Peak level 100.0 %
Track quality 100.0 %
Test CRC CF182D6F
Copy CRC CF182D6F
Accurately ripped (confidence 1) [64CD0458]
Copy OK
Track 7
Filename E:\TMP\_MEGATASK\Blue Cranes - (2007) - Lift Music! Flown Music!\Blue Cranes - 07 - Greenwood.wav
Pre-gap length 0:00:10.30
Peak level 96.2 %
Track quality 99.9 %
Test CRC F5D759E9
Copy CRC F5D759E9
Accurately ripped (confidence 1) [F0922820]
Copy OK
Track 8
Filename E:\TMP\_MEGATASK\Blue Cranes - (2007) - Lift Music! Flown Music!\Blue Cranes - 08 - Thirty Ought Six Circus.wav
Pre-gap length 0:00:03.10
Peak level 100.0 %
Track quality 100.0 %
Test CRC 6A7ED3B3
Copy CRC 6A7ED3B3
Accurately ripped (confidence 1) [CCF76125]
Copy OK
All tracks accurately ripped
No errors occurred
End of status report
 
.CUE
REM GENRE Jazz
REM DATE 2007
REM DISCID 650C4908
REM COMMENT "ExactAudioCopy v0.99pb5"
PERFORMER "Blue Cranes"
TITLE "Lift Music! Flown Music!"
FILE "Blue Cranes - 01 - Returning to Portland.wav" WAVE
TRACK 01 AUDIO
TITLE "Returning to Portland"
PERFORMER "Blue Cranes"
FLAGS DCP
INDEX 01 00:00:00
FILE "Blue Cranes - 02 - Aluviуn,Song for Audrey.wav" WAVE
TRACK 02 AUDIO
TITLE " Aluviуn/Song for Audrey"
PERFORMER "Blue Cranes"
FLAGS DCP
INDEX 01 00:00:00
FILE "Blue Cranes - 03 - Polaris.wav" WAVE
TRACK 03 AUDIO
TITLE "Polaris"
PERFORMER "Blue Cranes"
FLAGS DCP
INDEX 01 00:00:00
FILE "Blue Cranes - 04 - Cristo de Palacagьina.wav" WAVE
TRACK 04 AUDIO
TITLE "Cristo de Palacagьina"
PERFORMER "Blue Cranes"
FLAGS DCP
INDEX 01 00:00:00
FILE "Blue Cranes - 05 - Coming Up Roses.wav" WAVE
TRACK 05 AUDIO
TITLE "Coming Up Roses "
PERFORMER "Blue Cranes"
FLAGS DCP
INDEX 01 00:00:00
FILE "Blue Cranes - 06 - Dear Howard.wav" WAVE
TRACK 06 AUDIO
TITLE "Dear Howard"
PERFORMER "Blue Cranes"
FLAGS DCP
INDEX 01 00:00:00
TRACK 07 AUDIO
TITLE "Greenwood"
PERFORMER "Blue Cranes"
FLAGS DCP
INDEX 00 07:50:45
FILE "Blue Cranes - 07 - Greenwood.wav" WAVE
INDEX 01 00:00:00
TRACK 08 AUDIO
TITLE "Thirty Ought Six Circus"
PERFORMER "Blue Cranes"
FLAGS DCP
INDEX 00 04:42:07
FILE "Blue Cranes - 08 - Thirty Ought Six Circus.wav" WAVE
INDEX 01 00:00:00
 
audiocheker log
AUDIOCHECKER v2.0 beta (build 457) - by Dester - opdester@freemail.hu
~~~~~~~~~~~~~~~~~~~~~~~~~~~~~~~~~~
-=== DO NOT EDIT THIS FILE! ===-
Path: ...\Blue Cranes - Lift Music! Flown Music! (2007)
1 -=- Blue Cranes - 01 - Returning to Portland.flac -=- CDDA (100%)
2 -=- Blue Cranes - 02 - Aluvion,Song for Audrey.flac -=- ERROR
3 -=- Blue Cranes - 03 - Polaris.flac -=- CDDA (99%)
4 -=- Blue Cranes - 04 - Cristo de Palacaguina.flac -=- ERROR
5 -=- Blue Cranes - 05 - Coming Up Roses.flac -=- CDDA (100%)
6 -=- Blue Cranes - 06 - Dear Howard.flac -=- CDDA (100%)
7 -=- Blue Cranes - 07 - Greenwood.flac -=- CDDA (100%)
8 -=- Blue Cranes - 08 - Thirty Ought Six Circus.flac -=- CDDA (100%)
Summary 99,83% CDDA
25318868
 
(2008) Homing Patterns - 54:25
01. S.T.I.L.L. (3:07)
02. Awesome Hawk (6:03)
03. Seven Swans (6:03)
04. Crane (3:54)
05. Dirty Bourbon (9:21)
06. X (3:11)
07. Beware the Pneumatic Nailer (4:37)
08. Early Morning (5:44)
09. Inner Dialogue (4:55)
10. Washington Park - Eastbound (4:16)
11. Crane - Reprise (3:14)
 
EAC log
Exact Audio Copy V0.99 prebeta 5 from 4. May 2009
EAC extraction logfile from 15. December 2010, 15:26
Blue Cranes / Homing Patterns
Used drive : PIONEER DVD-RW DVR-216D Adapter: 0 ID: 0
Read mode : Secure
Utilize accurate stream : Yes
Defeat audio cache : Yes
Make use of C2 pointers : No
Read offset correction : 96
Overread into Lead-In and Lead-Out : No
Fill up missing offset samples with silence : Yes
Delete leading and trailing silent blocks : No
Null samples used in CRC calculations : Yes
Used interface : Native Win32 interface for Win NT & 2000
Gap handling : Appended to previous track
Used output format : User Defined Encoder
Selected bitrate : 768 kBit/s
Quality : High
Add ID3 tag : No
Command line compressor : C:\Program Files\Exact Audio Copy\FLAC\FLAC.EXE
Additional command line options : -8 -V -T "ARTIST=%a" -T "TITLE=%t" -T "ALBUM=%g" -T "DATE=%y" -T "TRACKNUMBER=%n" -T "GENRE=%m" -T "COMMENT=%e" %s -o %d
TOC of the extracted CD
Track | Start | Length | Start sector | End sector
---------------------------------------------------------
1 | 0:00.00 | 3:06.69 | 0 | 14018
2 | 3:06.69 | 6:03.20 | 14019 | 41263
3 | 9:10.14 | 6:02.53 | 41264 | 68466
4 | 15:12.67 | 3:53.71 | 68467 | 86012
5 | 19:06.63 | 9:21.18 | 86013 | 128105
6 | 28:28.06 | 3:10.38 | 128106 | 142393
7 | 31:38.44 | 4:37.26 | 142394 | 163194
8 | 36:15.70 | 5:43.71 | 163195 | 188990
9 | 41:59.66 | 4:55.21 | 188991 | 211136
10 | 46:55.12 | 4:16.08 | 211137 | 230344
11 | 51:11.20 | 3:14.04 | 230345 | 244898
Track 1
Filename E:\TMP\_MEGATASK\Blue Cranes - (2008) - Homing Patterns\Blue Cranes - 01 - S.T.I.L.L..wav
Pre-gap length 0:00:02.00
Peak level 99.1 %
Track quality 100.0 %
Test CRC 71652A55
Copy CRC 71652A55
Accurately ripped (confidence 1) [78451D1E]
Copy OK
Track 2
Filename E:\TMP\_MEGATASK\Blue Cranes - (2008) - Homing Patterns\Blue Cranes - 02 - Awesome Hawk.wav
Peak level 90.2 %
Track quality 99.9 %
Test CRC 38935970
Copy CRC 38935970
Accurately ripped (confidence 1) [894FF6F0]
Copy OK
Track 3
Filename E:\TMP\_MEGATASK\Blue Cranes - (2008) - Homing Patterns\Blue Cranes - 03 - Seven Swans.wav
Peak level 97.1 %
Track quality 100.0 %
Test CRC C99FFA62
Copy CRC C99FFA62
Accurately ripped (confidence 1) [BA648112]
Copy OK
Track 4
Filename E:\TMP\_MEGATASK\Blue Cranes - (2008) - Homing Patterns\Blue Cranes - 04 - Crane.wav
Peak level 75.4 %
Track quality 100.0 %
Test CRC 9418A6E6
Copy CRC 9418A6E6
Accurately ripped (confidence 1) [A7460606]
Copy OK
Track 5
Filename E:\TMP\_MEGATASK\Blue Cranes - (2008) - Homing Patterns\Blue Cranes - 05 - Dirty Bourbon.wav
Peak level 98.7 %
Track quality 100.0 %
Test CRC DC8C674E
Copy CRC DC8C674E
Accurately ripped (confidence 1) [4511AD22]
Copy OK
Track 6
Filename E:\TMP\_MEGATASK\Blue Cranes - (2008) - Homing Patterns\Blue Cranes - 06 - X.wav
Peak level 100.0 %
Track quality 100.0 %
Test CRC F12D404C
Copy CRC F12D404C
Accurately ripped (confidence 1) [BB7042DE]
Copy OK
Track 7
Filename E:\TMP\_MEGATASK\Blue Cranes - (2008) - Homing Patterns\Blue Cranes - 07 - Beware the Pneumatic Nailer.wav
Peak level 98.8 %
Track quality 100.0 %
Test CRC D538FAB6
Copy CRC D538FAB6
Accurately ripped (confidence 1) [E840B29E]
Copy OK
Track 8
Filename E:\TMP\_MEGATASK\Blue Cranes - (2008) - Homing Patterns\Blue Cranes - 08 - Early Morning.wav
Peak level 99.0 %
Track quality 100.0 %
Test CRC E570436E
Copy CRC E570436E
Accurately ripped (confidence 1) [DD547E6F]
Copy OK
Track 9
Filename E:\TMP\_MEGATASK\Blue Cranes - (2008) - Homing Patterns\Blue Cranes - 09 - Inner Dialogue.wav
Peak level 97.8 %
Track quality 100.0 %
Test CRC 5E7BAAF7
Copy CRC 5E7BAAF7
Accurately ripped (confidence 1) [E1BC157B]
Copy OK
Track 10
Filename E:\TMP\_MEGATASK\Blue Cranes - (2008) - Homing Patterns\Blue Cranes - 10 - Washington Park - Eastbound.wav
Peak level 100.0 %
Track quality 100.0 %
Test CRC B3C54D84
Copy CRC B3C54D84
Accurately ripped (confidence 1) [E2718CAB]
Copy OK
Track 11
Filename E:\TMP\_MEGATASK\Blue Cranes - (2008) - Homing Patterns\Blue Cranes - 11 - Crane - Reprise.wav
Peak level 72.0 %
Track quality 100.0 %
Test CRC 26D556B1
Copy CRC 26D556B1
Accurately ripped (confidence 1) [A02CAF0B]
Copy OK
All tracks accurately ripped
No errors occurred
End of status report
 
.CUE
REM GENRE Avantgarde
REM DATE 2008
REM DISCID 880CC10B
REM COMMENT "ExactAudioCopy v0.99pb5"
PERFORMER "Blue Cranes"
TITLE "Homing Patterns"
FILE "Blue Cranes - 01 - S.T.I.L.L..wav" WAVE
TRACK 01 AUDIO
TITLE "S.T.I.L.L."
PERFORMER "Blue Cranes"
INDEX 01 00:00:00
FILE "Blue Cranes - 02 - Awesome Hawk.wav" WAVE
TRACK 02 AUDIO
TITLE "Awesome Hawk"
PERFORMER "Blue Cranes"
INDEX 01 00:00:00
FILE "Blue Cranes - 03 - Seven Swans.wav" WAVE
TRACK 03 AUDIO
TITLE "Seven Swans"
PERFORMER "Blue Cranes"
INDEX 01 00:00:00
FILE "Blue Cranes - 04 - Crane.wav" WAVE
TRACK 04 AUDIO
TITLE "Crane"
PERFORMER "Blue Cranes"
INDEX 01 00:00:00
FILE "Blue Cranes - 05 - Dirty Bourbon.wav" WAVE
TRACK 05 AUDIO
TITLE "Dirty Bourbon"
PERFORMER "Blue Cranes"
INDEX 01 00:00:00
FILE "Blue Cranes - 06 - X.wav" WAVE
TRACK 06 AUDIO
TITLE "X"
PERFORMER "Blue Cranes"
INDEX 01 00:00:00
FILE "Blue Cranes - 07 - Beware the Pneumatic Nailer.wav" WAVE
TRACK 07 AUDIO
TITLE "Beware the Pneumatic Nailer"
PERFORMER "Blue Cranes"
INDEX 01 00:00:00
FILE "Blue Cranes - 08 - Early Morning.wav" WAVE
TRACK 08 AUDIO
TITLE "Early Morning"
PERFORMER "Blue Cranes"
INDEX 01 00:00:00
FILE "Blue Cranes - 09 - Inner Dialogue.wav" WAVE
TRACK 09 AUDIO
TITLE "Inner Dialogue"
PERFORMER "Blue Cranes"
INDEX 01 00:00:00
FILE "Blue Cranes - 10 - Washington Park - Eastbound.wav" WAVE
TRACK 10 AUDIO
TITLE "Washington Park - Eastbound"
PERFORMER "Blue Cranes"
INDEX 01 00:00:00
FILE "Blue Cranes - 11 - Crane - Reprise.wav" WAVE
TRACK 11 AUDIO
TITLE "Crane - Reprise"
PERFORMER "Blue Cranes"
INDEX 01 00:00:00
 
audiocheker log
AUDIOCHECKER v2.0 beta (build 457) - by Dester - opdester@freemail.hu
~~~~~~~~~~~~~~~~~~~~~~~~~~~~~~~~~~
-=== DO NOT EDIT THIS FILE! ===-
Path: ...\Blue Cranes - Homing Patterns (2008)
01 -=- Blue Cranes - 01 - S.T.I.L.L..flac -=- CDDA (99%)
02 -=- Blue Cranes - 02 - Awesome Hawk.flac -=- CDDA (100%)
03 -=- Blue Cranes - 03 - Seven Swans.flac -=- CDDA (100%)
04 -=- Blue Cranes - 04 - Crane.flac -=- CDDA (54%)
05 -=- Blue Cranes - 05 - Dirty Bourbon.flac -=- CDDA (100%)
06 -=- Blue Cranes - 06 - X.flac -=- CDDA (100%)
07 -=- Blue Cranes - 07 - Beware the Pneumatic Nailer.flac -=- CDDA (99%)
08 -=- Blue Cranes - 08 - Early Morning.flac -=- CDDA (100%)
09 -=- Blue Cranes - 09 - Inner Dialogue.flac -=- CDDA (100%)
10 -=- Blue Cranes - 10 - Washington Park - Eastbound.flac -=- CDDA (94%)
11 -=- Blue Cranes - 11 - Crane - Reprise.flac -=- CDDA (100%)
Summary 95,09% CDDA
126262788
 
(2010) Blue Cranes - Observatories - 43:36
01. Grandpa's Hands (5:29)
02. Love, Love, Love (6:52)
03. Ritchie Bros. (4:36)
04. Maddie Mae (Was A Good Girl) (7:09)
05. Broken Windmills (4:14)
06. These Are My People (5:08)
07. Yellow Ochre (4:57)
08. Here Is You, Here Is Me (5:10)
 
EAC log
Exact Audio Copy V0.99 prebeta 5 from 4. May 2009
EAC extraction logfile from 1. October 2010, 16:58
Blue Cranes / Observatories
Used drive : HL-DT-STDVD+-RW GU10N Adapter: 0 ID: 1
Read mode : Secure
Utilize accurate stream : Yes
Defeat audio cache : Yes
Make use of C2 pointers : No
Read offset correction : 667
Overread into Lead-In and Lead-Out : No
Fill up missing offset samples with silence : Yes
Delete leading and trailing silent blocks : No
Null samples used in CRC calculations : Yes
Used interface : Native Win32 interface for Win NT & 2000
Gap handling : Appended to previous track
Used output format : User Defined Encoder
Selected bitrate : 128 kBit/s
Quality : High
Add ID3 tag : No
Command line compressor : C:\Program Files (x86)\Exact Audio Copy\Flac\flac.exe
Additional command line options : -V -8 -T "artist=%a" -T "title=%t" -T "album=%g" -T "date=%y" -T "tracknumber=%n" -T "genre=%m" %s
TOC of the extracted CD
Track | Start | Length | Start sector | End sector
---------------------------------------------------------
1 | 0:00.00 | 5:29.35 | 0 | 24709
2 | 5:29.35 | 6:52.24 | 24710 | 55633
3 | 12:21.59 | 4:35.69 | 55634 | 76327
4 | 16:57.53 | 7:09.13 | 76328 | 108515
5 | 24:06.66 | 4:14.11 | 108516 | 127576
6 | 28:21.02 | 5:08.20 | 127577 | 150696
7 | 33:29.22 | 4:56.60 | 150697 | 172956
8 | 38:26.07 | 5:09.59 | 172957 | 196190
Track 1
Filename C:\flrips\Blue Cranes - Observatories (2010) flac\01 Grandpa's Hands.wav
Pre-gap length 0:00:02.00
Peak level 100.0 %
Track quality 100.0 %
Test CRC 935D5046
Copy CRC 935D5046
Track not present in AccurateRip database
Copy OK
Track 2
Filename C:\flrips\Blue Cranes - Observatories (2010) flac\02 Love, Love, Love.wav
Peak level 99.4 %
Track quality 100.0 %
Test CRC 11697E4A
Copy CRC 11697E4A
Track not present in AccurateRip database
Copy OK
Track 3
Filename C:\flrips\Blue Cranes - Observatories (2010) flac\03 Ritchie Bros..wav
Peak level 100.0 %
Track quality 99.9 %
Test CRC CA041B69
Copy CRC CA041B69
Track not present in AccurateRip database
Copy OK
Track 4
Filename C:\flrips\Blue Cranes - Observatories (2010) flac\04 Maddie Mae (Was A Good Girl).wav
Pre-gap length 0:00:15.33
Peak level 100.0 %
Track quality 100.0 %
Test CRC 688A622C
Copy CRC 688A622C
Track not present in AccurateRip database
Copy OK
Track 5
Filename C:\flrips\Blue Cranes - Observatories (2010) flac\05 Broken Windmills.wav
Peak level 100.0 %
Track quality 100.0 %
Test CRC 20B894B5
Copy CRC 20B894B5
Track not present in AccurateRip database
Copy OK
Track 6
Filename C:\flrips\Blue Cranes - Observatories (2010) flac\06 These Are My People.wav
Peak level 99.4 %
Track quality 100.0 %
Test CRC 47E84EF2
Copy CRC 47E84EF2
Track not present in AccurateRip database
Copy OK
Track 7
Filename C:\flrips\Blue Cranes - Observatories (2010) flac\07 Yellow Ochre.wav
Peak level 98.0 %
Track quality 100.0 %
Test CRC 93237638
Copy CRC 93237638
Track not present in AccurateRip database
Copy OK
Track 8
Filename C:\flrips\Blue Cranes - Observatories (2010) flac\08 Here Is You, Here Is Me.wav
Peak level 100.0 %
Track quality 100.0 %
Test CRC FE88843F
Copy CRC FE88843F
Track not present in AccurateRip database
Copy OK
None of the tracks are present in the AccurateRip database
No errors occurred
End of status report
 
.CUE
REM GENRE Jazz
REM DATE 2010
REM DISCID 4F0A3708
REM COMMENT "ExactAudioCopy v0.99pb5"
FILE "Blue Cranes - Observatories (2010) flac\01 Grandpa's Hands.wav" WAVE
TRACK 01 AUDIO
FLAGS DCP
INDEX 01 00:00:00
FILE "Blue Cranes - Observatories (2010) flac\02 Love, Love, Love.wav" WAVE
TRACK 02 AUDIO
FLAGS DCP
INDEX 01 00:00:00
FILE "Blue Cranes - Observatories (2010) flac\03 Ritchie Bros..wav" WAVE
TRACK 03 AUDIO
FLAGS DCP
INDEX 01 00:00:00
TRACK 04 AUDIO
FLAGS DCP
INDEX 00 04:20:44
FILE "Blue Cranes - Observatories (2010) flac\04 Maddie Mae (Was A Good Girl).wav" WAVE
INDEX 01 00:00:00
FILE "Blue Cranes - Observatories (2010) flac\05 Broken Windmills.wav" WAVE
TRACK 05 AUDIO
FLAGS DCP
INDEX 01 00:00:00
FILE "Blue Cranes - Observatories (2010) flac\06 These Are My People.wav" WAVE
TRACK 06 AUDIO
FLAGS DCP
INDEX 01 00:00:00
FILE "Blue Cranes - Observatories (2010) flac\07 Yellow Ochre.wav" WAVE
TRACK 07 AUDIO
FLAGS DCP
INDEX 01 00:00:00
FILE "Blue Cranes - Observatories (2010) flac\08 Here Is You, Here Is Me.wav" WAVE
TRACK 08 AUDIO
FLAGS DCP
INDEX 01 00:00:00
 
audiocheker log
AUDIOCHECKER v2.0 beta (build 457) - by Dester - opdester@freemail.hu
~~~~~~~~~~~~~~~~~~~~~~~~~~~~~~~~~~
-=== DO NOT EDIT THIS FILE! ===-
Path: ...\Blue Cranes - Observatories (2010)
1 -=- 01 Grandpa's Hands.flac -=- CDDA (100%)
2 -=- 02 Love, Love, Love.flac -=- CDDA (94%)
3 -=- 03 Ritchie Bros..flac -=- CDDA (58%)
4 -=- 04 Maddie Mae (Was A Good Girl).flac -=- CDDA (94%)
5 -=- 05 Broken Windmills.flac -=- CDDA (100%)
6 -=- 06 These Are My People.flac -=- CDDA (100%)
7 -=- 07 Yellow Ochre.flac -=- MPEG (89%)
8 -=- 08 Here Is You, Here Is Me.flac -=- CDDA (92%)
Summary 81,13% CDDA
144740804
 
(2011) Blue Cranes - Cantus Firmus [EP] - 12:52
01. Hated Because of Great Qualities (4:31)
02. New Jersey (4:06)
03. Harmless Sparks (4:14)
 
EAC log
Exact Audio Copy V1.0 beta 1 from 15. November 2010
EAC extraction logfile from 3. May 2011, 14:03
Blue Cranes / Cantus Firmus
Used drive : PIONEER DVD-RW DVR-216D Adapter: 0 ID: 0
Read mode : Secure
Utilize accurate stream : Yes
Defeat audio cache : Yes
Make use of C2 pointers : No
Read offset correction : 96
Overread into Lead-In and Lead-Out : No
Fill up missing offset samples with silence : Yes
Delete leading and trailing silent blocks : No
Null samples used in CRC calculations : Yes
Used interface : Native Win32 interface for Win NT & 2000
Gap handling : Appended to previous track
Used output format : User Defined Encoder
Selected bitrate : 128 kBit/s
Quality : High
Add ID3 tag : No
Command line compressor : C:\Program Files\Exact Audio Copy\Flac\flac.exe
Additional command line options : -V -8 -T "artist=%a" -T "title=%t" -T "album=%g" -T "date=%y" -T "tracknumber=%n" -T "genre=%m" %s
TOC of the extracted CD
Track | Start | Length | Start sector | End sector
---------------------------------------------------------
1 | 0:00.00 | 4:31.29 | 0 | 20353
2 | 4:31.29 | 4:06.23 | 20354 | 38826
3 | 8:37.52 | 4:14.17 | 38827 | 57893
Track 1
Filename E:\TMP\_MEGATASK\Blue Cranes - (2011) - Cantus Firmus\01 - Hated Because of Great Qualities.wav
Pre-gap length 0:00:02.00
Peak level 97.1 %
Extraction speed 4.4 X
Track quality 100.0 %
Test CRC 8C085D24
Copy CRC 8C085D24
Track not present in AccurateRip database
Copy OK
Track 2
Filename E:\TMP\_MEGATASK\Blue Cranes - (2011) - Cantus Firmus\02 - New Jersey.wav
Pre-gap length 0:00:00.94
Peak level 97.1 %
Extraction speed 4.9 X
Track quality 100.0 %
Test CRC 3E843ABF
Copy CRC 3E843ABF
Track not present in AccurateRip database
Copy OK
Track 3
Filename E:\TMP\_MEGATASK\Blue Cranes - (2011) - Cantus Firmus\03 - Harmless Sparks.wav
Pre-gap length 0:00:01.02
Peak level 97.0 %
Extraction speed 5.3 X
Track quality 100.0 %
Test CRC 155F6B25
Copy CRC 155F6B25
Track not present in AccurateRip database
Copy OK
None of the tracks are present in the AccurateRip database
No errors occurred
End of status report
==== Log checksum 2C882F577D6E75CD91CE3AF56E3A7F14801CF33D5E95F2735F9BB46BBA75969D ====
 
.CUE
REM GENRE Jazz
REM DATE 2011
REM DISCID 1D030303
REM COMMENT "ExactAudioCopy v1.0b1"
PERFORMER "Blue Cranes"
TITLE "Cantus Firmus"
FILE "01 - Hated Because of Great Qualities.wav" WAVE
TRACK 01 AUDIO
TITLE "Hated Because of Great Qualities"
PERFORMER "Blue Cranes"
INDEX 01 00:00:00
TRACK 02 AUDIO
TITLE "New Jersey"
PERFORMER "Blue Cranes"
INDEX 00 04:30:33
FILE "02 - New Jersey.wav" WAVE
INDEX 01 00:00:00
TRACK 03 AUDIO
TITLE "Harmless Sparks"
PERFORMER "Blue Cranes"
INDEX 00 04:05:21
FILE "03 - Harmless Sparks.wav" WAVE
INDEX 01 00:00:00
 
audiocheker log
AUDIOCHECKER v2.0 beta (build 457) - by Dester - opdester@freemail.hu
~~~~~~~~~~~~~~~~~~~~~~~~~~~~~~~~~~
-=== DO NOT EDIT THIS FILE! ===-
Path: ...\Blue Cranes - Cantus Firmus (2011)
1 -=- 01 - Hated Because of Great Qualities.flac -=- CDDA (100%)
2 -=- 02 - New Jersey.flac -=- CDDA (100%)
3 -=- 03 - Harmless Sparks.flac -=- CDDA (100%)
Summary 100,00% CDDA
176471732
Any questions -> support@pro-jazz.com. По всем вопросам пишите -> support@pro-jazz.com
13:29
212
Нет комментариев. Ваш будет первым!