Поиск

(modern improvisation, free-jazz) GUSH (Mats Gustafsson / Sten Sandell / Raymond Strid) - Live In Tampere - 1999, FLAC (image + .cue), lossless

(modern improvisation, free-jazz) GUSH (Mats Gustafsson / Sten Sandell / Raymond Strid) - Live In Tampere - 1999, FLAC (image + .cue), lossless
Треклист:
GUSH (Mats Gustafsson / Sten Sandell / Raymond Strid) - Live In Tampere
Страна: Sweden
Жанр: modern improvisation, free-jazz
Год выпуска: 1999
Формат: FLAC (image + .cue)
Битрейт аудио: lossless
Продолжительность: 57:39
Трэклист:
1. Intoduction (0:30)
2. Enough Of Warranties! (38:18)
3. The Final Warranty (18:47)
Доп. информация: Mats Gustafsson - soprano & tenor sax, fluteophone, flute
Sten Sandell - piano, voice
Raymond Strid - drums
Тут появились просьбы выложить еще Мэтса. Вот пожалуйста..
Скажу сразу - у меня почему то этот диск стойко ассоциируется в псилоцибином =). Уж извините.. Нечеловеческая музыка. Густафссон много и волнительно мучает редкий для него сопрано саксофон, уходя порой в совершенно нереальные дебри звуков, в человеческом обиходе наяву не встречающихся. Сильно, мощно, громко, бесстрашно. Не для всех.
 
Отчёт EAC
Exact Audio Copy V0.99 prebeta 4 from 23. January 2008
Отчёт EAC об извлечении, выполненном 4. мая 2008, 2:12
GUSH / Live in Tampere
Дисковод: Optiarc DVD RW AD-7170A Adapter: 0 ID: 1
Режим чтения : Достоверность
Использование точного потока : Да
Отключение кэша аудио : Да
Использование указателей C2 : Нет
Комбинированное смещение чтения/записи : 0
Способность читать области Lead-in и Lead-out : Нет
Заполнение пропущенных сэмплов тишиной : Да
Удаление блоков с тишиной в начале и конце : Нет
При вычислениях CRC использовались нулевые сэмплы : Нет
Интерфейс : Встроенный Win32-интерфейс для Win NT/2000
Выходной формат : Пользовательский кодировщик
Выбранный битрейт : 768 kBit/s
Качество : Высокий
Добавление ID3-тэга : Нет
Утилита сжатия : C:\Program Files\Exact Audio Copy\FLAC\FLAC.EXE
Дополнительные параметры : -6 -V -T "ARTIST=%a" -T "TITLE=%t" -T "ALBUM=%g" -T "DATE=%y" -T "TRACKNUMBER=%n" -T "GENRE=%m" -T "COMMENT=%e" %s -o %d
TOC извлечённого CD
Трек | Старт | Длительность | Начальный сектор | Конечный сектор
---------------------------------------------------------------------
1 | 0:00.00 | 0:32.07 | 0 | 2406
2 | 0:32.07 | 38:18.10 | 2407 | 174766
3 | 38:50.17 | 18:46.65 | 174767 | 259281
Характеристики диапазона извлечения и сообщения об ошибках
Выбранный диапазон
Имя файла E:\Music\GUSH - Live in Tampere.wav
Пиковый уровень 100.0 %
Качество диапазона 99.9 %
CRC копии AA034CA9
Копирование... OK
Ошибок не произошло
Конец отчёта
Приватный:
Нет (DHT включён)
Размер:
277.14 Мб (290,597,591 байт) » файлов: 3
Участники:
0 раздают, 0 качают (0 участников всего)
Внешние участники:
2 раздают, 1 качают (3 участников всего) [ Обновить ]
Есть вопросы - пишите личное сообщение пользователю M0p94ok.
00:54
57
Нет комментариев. Ваш будет первым!