Вы используете незарегистрированную версию компонента "Вкладки"!

Поиск

(Modern Free, Free Improvisation, Tzadik) John Zorn & Fred Frith - Late Works - 2010, FLAC (tracks+.cue), lossless

Треклист:
John Zorn & Fred Frith / Late Works
Жанр: Free Improvisation
Страна-производитель диска: США
Год издания диска: 2010
Издатель (лейбл): Tzadik
Номер по каталогу: 7634
Страна: США
Аудиокодек: FLAC (*.flac)
Тип рипа: tracks+.cue
Битрейт аудио: lossless
Продолжительность: 50:23
Источник (релизер): вот.сиди (denti)
Наличие сканов в содержимом раздачи: нет
Треклист:
1 Foetid Ceremony 5:34
2 Mosquito Slats 2:09
3 Horse Rehab 5:43
4 Legend Of The Small 2:17
5 Baffled Hats 3:20
6 Movement Of Harried Angels 7:29
7 The Fouth Mind 9:40
8 Creature Comforts 3:11
9 Slow Lattice 5:58
10 Ankle Time 5:03
Recorded and mixed October 16, 2009 at East Side Sound, NYC
 
Лог создания рипа
Exact Audio Copy V1.0 beta 1 from 15. November 2010
EAC extraction logfile from 15. June 2011, 12:45
John Zorn & Fred Frith / Late Works
Used drive : TSSTcorpCD/DVDW SH-S182D Adapter: 1 ID: 0
Read mode : Secure
Utilize accurate stream : Yes
Defeat audio cache : Yes
Make use of C2 pointers : No
Read offset correction : 6
Overread into Lead-In and Lead-Out : No
Fill up missing offset samples with silence : Yes
Delete leading and trailing silent blocks : No
Null samples used in CRC calculations : Yes
Used interface : Native Win32 interface for Win NT & 2000
Gap handling : Appended to previous track
Used output format : User Defined Encoder
Selected bitrate : 128 kBit/s
Quality : High
Add ID3 tag : No
Command line compressor : C:\Program Files\Exact Audio Copy\Flac\flac.exe
Additional command line options : -V -8 -T "artist=%a" -T "title=%t" -T "album=%g" -T "date=%y" -T "tracknumber=%n" -T "genre=%m" %s
TOC of the extracted CD
Track | Start | Length | Start sector | End sector
---------------------------------------------------------
1 | 0:00.00 | 5:33.68 | 0 | 25042
2 | 5:33.68 | 2:08.62 | 25043 | 34704
3 | 7:42.55 | 5:42.45 | 34705 | 60399
4 | 13:25.25 | 2:16.49 | 60400 | 70648
5 | 15:41.74 | 3:19.53 | 70649 | 85626
6 | 19:01.52 | 7:29.08 | 85627 | 119309
7 | 26:30.60 | 9:40.37 | 119310 | 162846
8 | 36:11.22 | 3:11.15 | 162847 | 177186
9 | 39:22.37 | 5:57.40 | 177187 | 204001
10 | 45:20.02 | 5:02.63 | 204002 | 226714
Track 1
Filename D:\EAC Rips\John Zorn & Fred Frith - 2010 - Late Works\01 - Foetid Ceremony.wav
Pre-gap length 0:00:02.00
Peak level 98.0 %
Extraction speed 4.6 X
Track quality 100.0 %
Test CRC 0FE7C299
Copy CRC 0FE7C299
Track not present in AccurateRip database
Copy OK
Track 2
Filename D:\EAC Rips\John Zorn & Fred Frith - 2010 - Late Works\02 - Mosquito Slats.wav
Peak level 96.6 %
Extraction speed 3.5 X
Track quality 99.9 %
Test CRC 7C3C42E0
Copy CRC 7C3C42E0
Track not present in AccurateRip database
Copy OK
Track 3
Filename D:\EAC Rips\John Zorn & Fred Frith - 2010 - Late Works\03 - Horse Rehab.wav
Peak level 96.6 %
Extraction speed 5.4 X
Track quality 100.0 %
Test CRC F9F4C4A9
Copy CRC F9F4C4A9
Track not present in AccurateRip database
Copy OK
Track 4
Filename D:\EAC Rips\John Zorn & Fred Frith - 2010 - Late Works\04 - Legend of the Smell.wav
Peak level 96.6 %
Extraction speed 5.1 X
Track quality 100.0 %
Test CRC DDF3DDA9
Copy CRC DDF3DDA9
Track not present in AccurateRip database
Copy OK
Track 5
Filename D:\EAC Rips\John Zorn & Fred Frith - 2010 - Late Works\05 - Baffled Hats.wav
Peak level 96.6 %
Extraction speed 5.7 X
Track quality 100.0 %
Test CRC 60850E27
Copy CRC 60850E27
Track not present in AccurateRip database
Copy OK
Track 6
Filename D:\EAC Rips\John Zorn & Fred Frith - 2010 - Late Works\06 - Movements of Harried Angels.wav
Peak level 96.6 %
Extraction speed 6.7 X
Track quality 100.0 %
Test CRC 5503ECBD
Copy CRC 5503ECBD
Track not present in AccurateRip database
Copy OK
Track 7
Filename D:\EAC Rips\John Zorn & Fred Frith - 2010 - Late Works\07 - The Fourth Mind.wav
Peak level 96.6 %
Extraction speed 7.5 X
Track quality 100.0 %
Test CRC 429DCCB1
Copy CRC 429DCCB1
Track not present in AccurateRip database
Copy OK
Track 8
Filename D:\EAC Rips\John Zorn & Fred Frith - 2010 - Late Works\08 - Creature Comforts.wav
Peak level 96.6 %
Extraction speed 7.1 X
Track quality 100.0 %
Test CRC DB93A16A
Copy CRC DB93A16A
Track not present in AccurateRip database
Copy OK
Track 9
Filename D:\EAC Rips\John Zorn & Fred Frith - 2010 - Late Works\09 - Slow Latice.wav
Peak level 96.6 %
Extraction speed 8.0 X
Track quality 100.0 %
Test CRC B2EDC699
Copy CRC B2EDC699
Track not present in AccurateRip database
Copy OK
Track 10
Filename D:\EAC Rips\John Zorn & Fred Frith - 2010 - Late Works\10 - Ankle Time.wav
Peak level 96.6 %
Extraction speed 7.3 X
Track quality 99.9 %
Test CRC 4F884503
Copy CRC 4F884503
Track not present in AccurateRip database
Copy OK
None of the tracks are present in the AccurateRip database
No errors occurred
End of status report
==== Log checksum DE2E7CF85DF6FB0B9877EACF379275B4E51B3D0A276F90167E53AF14E3A6D9AA ====
 
Содержание индексной карты (.CUE)
REM GENRE Jazz
REM DATE 2010
REM DISCID 7D0BCE0A
REM COMMENT "ExactAudioCopy v1.0b1"
FILE "01 - Foetid Ceremony.wav" WAVE
TRACK 01 AUDIO
INDEX 01 00:00:00
FILE "02 - Mosquito Slats.wav" WAVE
TRACK 02 AUDIO
INDEX 01 00:00:00
FILE "03 - Horse Rehab.wav" WAVE
TRACK 03 AUDIO
INDEX 01 00:00:00
FILE "04 - Legend of the Smell.wav" WAVE
TRACK 04 AUDIO
INDEX 01 00:00:00
FILE "05 - Baffled Hats.wav" WAVE
TRACK 05 AUDIO
INDEX 01 00:00:00
FILE "06 - Movements of Harried Angels.wav" WAVE
TRACK 06 AUDIO
INDEX 01 00:00:00
FILE "07 - The Fourth Mind.wav" WAVE
TRACK 07 AUDIO
INDEX 01 00:00:00
FILE "08 - Creature Comforts.wav" WAVE
TRACK 08 AUDIO
INDEX 01 00:00:00
FILE "09 - Slow Latice.wav" WAVE
TRACK 09 AUDIO
INDEX 01 00:00:00
FILE "10 - Ankle Time.wav" WAVE
TRACK 10 AUDIO
INDEX 01 00:00:00
 
Лог проверки качества
AUDIOCHECKER v2.0 beta (build 457) - by Dester - opdester@freemail.hu
~~~~~~~~~~~~~~~~~~~~~~~~~~~~~~~~~~
-=== DO NOT EDIT THIS FILE! ===-
Path: ...\John Zorn & Fred Frith - 2010 - Late Works
01 -=- 01 - Foetid Ceremony.flac -=- CDDA (99%)
02 -=- 02 - Mosquito Slats.flac -=- CDDA (100%)
03 -=- 03 - Horse Rehab.flac -=- CDDA (100%)
04 -=- 04 - Legend of the Smell.flac -=- CDDA (99%)
05 -=- 05 - Baffled Hats.flac -=- CDDA (100%)
06 -=- 06 - Movements of Harried Angels.flac -=- CDDA (99%)
07 -=- 07 - The Fourth Mind.flac -=- CDDA (100%)
08 -=- 08 - Creature Comforts.flac -=- CDDA (100%)
09 -=- 09 - Slow Latice.flac -=- CDDA (100%)
10 -=- 10 - Ankle Time.flac -=- CDDA (99%)
Summary 99,60% CDDA
145509508
 
Состав
John Zorn alto saxophone
Fred Frith electric guitar
Any questions -> support@pro-jazz.com. По всем вопросам пишите -> support@pro-jazz.com
14:17
168
Нет комментариев. Ваш будет первым!