Вы используете незарегистрированную версию компонента "Вкладки"!

Поиск

(Modern Creative / World Jazz) Scott Amendola Band - Scott Amendola Band - 2000, FLAC (tracks+.cue), lossless

Треклист:
Scott Amendola Band - Scott Amendola Band
Жанр: Modern Creative / World Jazz
Год выпуска диска: 2000
Производитель диска: US (Artofmyheart Records) [aomh 001]
Аудио кодек: FLAC
Тип рипа: tracks+.cue
Битрейт аудио: lossless
Продолжительность: 62:50
Трэклист:
Jenny Scheinman - violin
Dave Macnab - guitar
Eric Crystal - saxophones
Todd Sickafoose - acoustic bass
Scott Amendola - drums, melodica
1. Last Chance (Make Your Move)
2. 59th Street Blues
3. Redlacquer Blue
4. Slow Zig
5. Hymn
6. Manic Depression
7. One Of These Things First
8. Diana Maria
9. This is Sad
10. Johnny X
 
.log
Exact Audio Copy V0.99 prebeta 5 from 4. May 2009
EAC extraction logfile from 24. June 2010, 16:45
Scott Amendola Band / Scott Amendola Band
Used drive : Optiarc DVD RW AD-7200A Adapter: 1 ID: 0
Read mode : Secure
Utilize accurate stream : Yes
Defeat audio cache : Yes
Make use of C2 pointers : No
Read offset correction : 48
Overread into Lead-In and Lead-Out : No
Fill up missing offset samples with silence : Yes
Delete leading and trailing silent blocks : No
Null samples used in CRC calculations : Yes
Used interface : Native Win32 interface for Win NT & 2000
Gap handling : Appended to previous track
Used output format : User Defined Encoder
Selected bitrate : 768 kBit/s
Quality : High
Add ID3 tag : No
Command line compressor : C:\Program Files\Exact Audio Copy\FLAC\FLAC.EXE
Additional command line options : -V -8 -T "artist=%a" -T "title=%t" -T "album=%g" -T "date=%y" -T "tracknumber=%n" -T "genre=%m" %s
TOC of the extracted CD
Track | Start | Length | Start sector | End sector
---------------------------------------------------------
1 | 0:00.00 | 6:56.05 | 0 | 31204
2 | 6:56.05 | 7:37.42 | 31205 | 65521
3 | 14:33.47 | 6:56.25 | 65522 | 96746
4 | 21:29.72 | 7:06.58 | 96747 | 128754
5 | 28:36.55 | 8:05.27 | 128755 | 165156
6 | 36:42.07 | 4:25.30 | 165157 | 185061
7 | 41:07.37 | 7:07.60 | 185062 | 217146
8 | 48:15.22 | 8:02.03 | 217147 | 253299
9 | 56:17.25 | 5:51.57 | 253300 | 279681
10 | 62:09.07 | 0:41.50 | 279682 | 282806
Track 1
Filename D:\Scott Amendola Band - Scott Amendola Band (2000) [FLAC]\01 Last Chance (Make Your Move).wav
Pre-gap length 0:00:02.00
Peak level 79.0 %
Track quality 99.9 %
Test CRC 7E47D4D1
Copy CRC 7E47D4D1
Copy OK
Track 2
Filename D:\Scott Amendola Band - Scott Amendola Band (2000) [FLAC]\02 59th St. Blues.wav
Pre-gap length 0:00:02.80
Peak level 84.7 %
Track quality 99.9 %
Test CRC 6E5F5E35
Copy CRC 6E5F5E35
Copy OK
Track 3
Filename D:\Scott Amendola Band - Scott Amendola Band (2000) [FLAC]\03 Redlacquer Blue.wav
Peak level 77.8 %
Track quality 100.0 %
Test CRC E9B754F8
Copy CRC E9B754F8
Copy OK
Track 4
Filename D:\Scott Amendola Band - Scott Amendola Band (2000) [FLAC]\04 Slow Zig.wav
Pre-gap length 0:00:03.89
Peak level 80.8 %
Track quality 100.0 %
Test CRC A976DB73
Copy CRC A976DB73
Copy OK
Track 5
Filename D:\Scott Amendola Band - Scott Amendola Band (2000) [FLAC]\05 Hymn.wav
Pre-gap length 0:00:03.04
Peak level 91.2 %
Track quality 100.0 %
Test CRC C2A31574
Copy CRC C2A31574
Copy OK
Track 6
Filename D:\Scott Amendola Band - Scott Amendola Band (2000) [FLAC]\06 Manic Depression.wav
Pre-gap length 0:00:02.96
Peak level 86.7 %
Track quality 100.0 %
Test CRC 93211C1D
Copy CRC 93211C1D
Copy OK
Track 7
Filename D:\Scott Amendola Band - Scott Amendola Band (2000) [FLAC]\07 One of These Things First.wav
Pre-gap length 0:00:01.33
Peak level 95.4 %
Track quality 100.0 %
Test CRC 1EC6E9C1
Copy CRC 1EC6E9C1
Copy OK
Track 8
Filename D:\Scott Amendola Band - Scott Amendola Band (2000) [FLAC]\08 Diana Maria.wav
Pre-gap length 0:00:03.09
Peak level 70.6 %
Track quality 100.0 %
Test CRC FD4FF639
Copy CRC FD4FF639
Copy OK
Track 9
Filename D:\Scott Amendola Band - Scott Amendola Band (2000) [FLAC]\09 This is Sad.wav
Pre-gap length 0:00:02.30
Peak level 87.6 %
Track quality 100.0 %
Test CRC E65380BB
Copy CRC E65380BB
Copy OK
Track 10
Filename D:\Scott Amendola Band - Scott Amendola Band (2000) [FLAC]\10 Johnny X.wav
Pre-gap length 0:00:14.82
Peak level 43.4 %
Track quality 100.0 %
Test CRC 30931318
Copy CRC 30931318
Copy OK
No errors occurred
End of status report
 
.cue
REM GENRE Jazz
REM DATE 2000
REM DISCID 9C0EBA0A
REM COMMENT "ExactAudioCopy v0.99pb5"
FILE "01 Last Chance (Make Your Move).wav" WAVE
TRACK 01 AUDIO
INDEX 01 00:00:00
TRACK 02 AUDIO
INDEX 00 06:53:20
FILE "02 59th St. Blues.wav" WAVE
INDEX 01 00:00:00
FILE "03 Redlacquer Blue.wav" WAVE
TRACK 03 AUDIO
INDEX 01 00:00:00
TRACK 04 AUDIO
INDEX 00 06:52:33
FILE "04 Slow Zig.wav" WAVE
INDEX 01 00:00:00
TRACK 05 AUDIO
INDEX 00 07:03:55
FILE "05 Hymn.wav" WAVE
INDEX 01 00:00:00
TRACK 06 AUDIO
INDEX 00 08:02:30
FILE "06 Manic Depression.wav" WAVE
INDEX 01 00:00:00
TRACK 07 AUDIO
INDEX 00 04:24:05
FILE "07 One of These Things First.wav" WAVE
INDEX 01 00:00:00
TRACK 08 AUDIO
INDEX 00 07:04:53
FILE "08 Diana Maria.wav" WAVE
INDEX 01 00:00:00
TRACK 09 AUDIO
INDEX 00 07:59:55
FILE "09 This is Sad.wav" WAVE
INDEX 01 00:00:00
TRACK 10 AUDIO
INDEX 00 05:36:70
FILE "10 Johnny X.wav" WAVE
INDEX 01 00:00:00
собственный рип
Any questions -> support@pro-jazz.com. По всем вопросам пишите -> support@pro-jazz.com
01:00
163
Нет комментариев. Ваш будет первым!