Вы используете незарегистрированную версию компонента "Вкладки"!

Поиск

(Modern Creative / World Jazz) Scott Amendola Band - Believe - 2005, FLAC (tracks+.cue), lossless

(Modern Creative / World Jazz) Scott Amendola Band - Believe - 2005, FLAC (tracks+.cue), lossless
Треклист:
Scott Amendola Band - Believe
Жанр: Modern Creative / World Jazz
Год выпуска диска: 2005
Производитель диска: US (Cryptogramophone Records) [CG123]
Аудио кодек: FLAC
Тип рипа: tracks+.cue
Битрейт аудио: lossless
Продолжительность: 68:48
Трэклист:
Jeff Parker - guitar
Jenny Scheinman - violin
John Shifflett - bass
Nels Cline - 6 & 12-string guitars, lap steel guitar
Scott Amendola - drums, percussion, loops, live electronics, treatments, electric mbira, melodica
1. Believe
2. Oladipo
3. Shady
4. If Only Once
5. Buffalo Bird Woman
6. Smarty Pants
7. Valentine
8. Resistance
9. Cesar Chavez
 
.log
Exact Audio Copy V0.99 prebeta 4 from 23. January 2008
EAC extraction logfile from 16. April 2009, 18:48
Scott Amendola Band / Believe
Used drive : Optiarc DVD RW AD-7200A Adapter: 1 ID: 0
Read mode : Secure
Utilize accurate stream : Yes
Defeat audio cache : Yes
Make use of C2 pointers : No
Read offset correction : 48
Overread into Lead-In and Lead-Out : No
Fill up missing offset samples with silence : Yes
Delete leading and trailing silent blocks : No
Null samples used in CRC calculations : Yes
Used interface : Native Win32 interface for Win NT & 2000
Gap handling : Appended to previous track
Used output format : User Defined Encoder
Selected bitrate : 768 kBit/s
Quality : High
Add ID3 tag : No
Command line compressor : C:\Program Files\Exact Audio Copy\Flac\flac.exe
Additional command line options : -V -8 -T "artist=%a" -T "title=%t" -T "album=%g" -T "date=%y" -T "tracknumber=%n" -T "genre=%m" %s
TOC of the extracted CD
Track | Start | Length | Start sector | End sector
---------------------------------------------------------
1 | 0:00.00 | 5:36.72 | 0 | 25271
2 | 5:36.72 | 7:56.31 | 25272 | 61002
3 | 13:33.28 | 4:58.07 | 61003 | 83359
4 | 18:31.35 | 9:59.70 | 83360 | 128354
5 | 28:31.30 | 7:29.58 | 128355 | 162087
6 | 36:01.13 | 7:23.46 | 162088 | 195358
7 | 43:24.59 | 7:08.36 | 195359 | 227494
8 | 50:33.20 | 10:05.74 | 227495 | 272943
9 | 60:39.19 | 8:14.60 | 272944 | 310053
Track 1
Filename E:\My Torrents\Scott Amendola Band - Believe (2005) (FLAC)\01 - Believe.wav
Pre-gap length 0:00:02.00
Peak level 94.4 %
Track quality 100.0 %
Test CRC 4D3D730D
Copy CRC 4D3D730D
Copy OK
Track 2
Filename E:\My Torrents\Scott Amendola Band - Believe (2005) (FLAC)\02 - Oladipo.wav
Pre-gap length 0:00:00.73
Peak level 94.4 %
Track quality 100.0 %
Test CRC 4CD8A097
Copy CRC 4CD8A097
Copy OK
Track 3
Filename E:\My Torrents\Scott Amendola Band - Believe (2005) (FLAC)\03 - Shady.wav
Pre-gap length 0:00:01.85
Peak level 94.4 %
Track quality 100.0 %
Test CRC 21F01551
Copy CRC 21F01551
Copy OK
Track 4
Filename E:\My Torrents\Scott Amendola Band - Believe (2005) (FLAC)\04 - If Only Once.wav
Pre-gap length 0:00:01.97
Peak level 93.4 %
Track quality 100.0 %
Test CRC 30366004
Copy CRC 30366004
Copy OK
Track 5
Filename E:\My Torrents\Scott Amendola Band - Believe (2005) (FLAC)\05 - Buffalo Bird Woman.wav
Pre-gap length 0:00:01.69
Peak level 94.4 %
Track quality 100.0 %
Test CRC 9CDE83A3
Copy CRC 9CDE83A3
Copy OK
Track 6
Filename E:\My Torrents\Scott Amendola Band - Believe (2005) (FLAC)\06 - Smarty Pants.wav
Pre-gap length 0:00:02.21
Peak level 94.4 %
Track quality 99.9 %
Test CRC E99FC542
Copy CRC E99FC542
Copy OK
Track 7
Filename E:\My Torrents\Scott Amendola Band - Believe (2005) (FLAC)\07 - Valentine.wav
Pre-gap length 0:00:01.02
Peak level 94.4 %
Track quality 100.0 %
Test CRC 41375320
Copy CRC 41375320
Copy OK
Track 8
Filename E:\My Torrents\Scott Amendola Band - Believe (2005) (FLAC)\08 - Resistance.wav
Pre-gap length 0:00:01.16
Peak level 94.4 %
Track quality 100.0 %
Test CRC C008C776
Copy CRC C008C776
Copy OK
Track 9
Filename E:\My Torrents\Scott Amendola Band - Believe (2005) (FLAC)\09 - Cesar Chavez.wav
Pre-gap length 0:00:01.84
Peak level 94.3 %
Track quality 99.9 %
Test CRC FE957D7D
Copy CRC FE957D7D
Copy OK
No errors occurred
End of status report
Any questions -> support@pro-jazz.com. По всем вопросам пишите -> support@pro-jazz.com
10:12
173
Нет комментариев. Ваш будет первым!