Поиск

(Modern Creative, World Fusion) Didier Malherbe & Eric Lohrer - Nuit D'Ombrelle (2CD) - 2011, WavPack (image+.cue), lossless

Треклист:
Didier Malherbe & Eric Lohrer / Nuit D'Ombrelle (2CD)
Жанр: Modern Creative, World Fusion
Страна-производитель диска: France
Год издания диска: 2011
Издатель (лейбл): Naive
Номер по каталогу: NJ621211
Страна: France
Аудиокодек: WavPack (*.wv)
Тип рипа: image+.cue
Битрейт аудио: lossless
Продолжительность: 61:09 + 27:26
Источник (релизер): ed2k
Наличие сканов в содержимом раздачи: нет
Треклист:
CD 1 « Jazz Song book »
01 : Dark shadows
02 : Cry me a river
03 : Let's cool one
04 : 'round midnight
05 : Misterioso /blue monk
06 : Bopwind
07 : St james infirmary /eshkhemet
08 : Mood indigo
09 : We see
10 : Monk's mood
11 : Think of one
12 : Smoke gets in your eyes
13 : Kourouts blues
14 : I remember clifford
CD 2 « Nuit d’Ombrelle »
01 : Nout
02 : Semi d'oubli
03 : Songe de framboise
04 : Ombres deguisees
05 : Souvenir d'hippocampe
06 : Moires
07 : Ivres dunes
08 : Vaguablues
09 : Bout de la nuit
 
Лог создания рипа

 
CD1
Exact Audio Copy V1.0 beta 1 from 15. November 2010
EAC extraction logfile from 17. April 2011, 13:59
Didier Malherbe & Eric Löhrer / Nuit d'ombrelle (Jazz songbook)
Used drive : HL-DT-STDVDRAM GSA-H42N Adapter: 3 ID: 0
Read mode : Secure
Utilize accurate stream : Yes
Defeat audio cache : Yes
Make use of C2 pointers : No
Read offset correction : 667
Overread into Lead-In and Lead-Out : Yes
Fill up missing offset samples with silence : Yes
Delete leading and trailing silent blocks : No
Null samples used in CRC calculations : No
Used interface : Installed external ASPI interface
Used output format : Internal WAV Routines
Sample format : 44.100 Hz; 16 Bit; Stereo
TOC of the extracted CD
Track | Start | Length | Start sector | End sector
---------------------------------------------------------
1 | 0:00.00 | 4:05.07 | 0 | 18381
2 | 4:05.07 | 4:18.35 | 18382 | 37766
3 | 8:23.42 | 3:54.25 | 37767 | 55341
4 | 12:17.67 | 5:02.53 | 55342 | 78044
5 | 17:20.45 | 4:01.36 | 78045 | 96155
6 | 21:22.06 | 5:27.15 | 96156 | 120695
7 | 26:49.21 | 4:11.07 | 120696 | 139527
8 | 31:00.28 | 4:13.45 | 139528 | 158547
9 | 35:13.73 | 4:50.29 | 158548 | 180326
10 | 40:04.27 | 4:51.13 | 180327 | 202164
11 | 44:55.40 | 4:03.68 | 202165 | 220457
12 | 48:59.33 | 3:53.41 | 220458 | 237973
13 | 52:52.74 | 2:37.59 | 237974 | 249807
14 | 55:30.58 | 5:38.27 | 249808 | 275184
Range status and errors
Selected range
Filename C:\Didier Malherbe & Eric Löhrer - Nuit d'ombrelle (Jazz songbook).wav
Peak level 100.0 %
Extraction speed 0.6 X
Range quality 100.0 %
Copy CRC 7D1FEED7
Copy OK
No errors occurred
End of status report
 
CD2
Exact Audio Copy V1.0 beta 1 from 15. November 2010
EAC extraction logfile from 17. April 2011, 14:06
Malherbe - Löhrer / Nuit d'ombrelle
Used drive : HL-DT-STDVDRAM GSA-H42N Adapter: 3 ID: 0
Read mode : Secure
Utilize accurate stream : Yes
Defeat audio cache : Yes
Make use of C2 pointers : No
Read offset correction : 667
Overread into Lead-In and Lead-Out : Yes
Fill up missing offset samples with silence : Yes
Delete leading and trailing silent blocks : No
Null samples used in CRC calculations : No
Used interface : Installed external ASPI interface
Used output format : Internal WAV Routines
Sample format : 44.100 Hz; 16 Bit; Stereo
TOC of the extracted CD
Track | Start | Length | Start sector | End sector
---------------------------------------------------------
1 | 0:00.00 | 2:54.13 | 0 | 13062
2 | 2:54.13 | 2:29.62 | 13063 | 24299
3 | 5:24.00 | 1:57.31 | 24300 | 33105
4 | 7:21.31 | 2:29.28 | 33106 | 44308
5 | 9:50.59 | 2:43.52 | 44309 | 56585
6 | 12:34.36 | 1:55.50 | 56586 | 65260
7 | 14:30.11 | 3:20.55 | 65261 | 80315
8 | 17:50.66 | 4:10.53 | 80316 | 99118
9 | 22:01.44 | 5:25.27 | 99119 | 123520
Range status and errors
Selected range
Filename C:\Malherbe - Löhrer - Nuit d'ombrelle.wav
Peak level 99.9 %
Extraction speed 1.2 X
Range quality 100.0 %
Copy CRC 9068C841
Copy OK
No errors occurred
End of status report
 
Содержание индексной карты (.CUE)

 
CD1
REM DATE 2011
REM DISCID B30E550E
REM COMMENT "ExactAudioCopy v1.0b1"
PERFORMER "Didier Malherbe & Eric Lцhrer"
TITLE "Nuit d'ombrelle (Jazz songbook)"
FILE "Didier Malherbe & Eric Lohrer - Nuit d'ombrelle (Jazz songbook).wv" WAVE
TRACK 01 AUDIO
TITLE "Dark shadows"
PERFORMER "Didier Malherbe & Eric Lцhrer"
ISRC FRZ130970140
INDEX 01 00:00:00
TRACK 02 AUDIO
TITLE "Cry me a river"
PERFORMER "Didier Malherbe & Eric Lцhrer"
ISRC FRZ130970141
INDEX 00 04:04:39
INDEX 01 04:05:07
TRACK 03 AUDIO
TITLE "Let's cool one"
PERFORMER "Didier Malherbe & Eric Lцhrer"
ISRC FRZ130970142
INDEX 00 08:23:05
INDEX 01 08:23:42
TRACK 04 AUDIO
TITLE "Round about midnight"
PERFORMER "Didier Malherbe & Eric Lцhrer"
ISRC FRZ130970143
INDEX 00 12:15:42
INDEX 01 12:17:67
TRACK 05 AUDIO
TITLE "Misterioso \ Blue Monk"
PERFORMER "Didier Malherbe & Eric Lцhrer"
ISRC FRZ130970144
INDEX 00 17:19:29
INDEX 01 17:20:45
TRACK 06 AUDIO
TITLE "Bopwind"
PERFORMER "Didier Malherbe & Eric Lцhrer"
ISRC FRZ130970145
INDEX 01 21:22:06
TRACK 07 AUDIO
TITLE "Saint James Infirmary \ Eshkhemet"
PERFORMER "Didier Malherbe & Eric Lцhrer"
ISRC FRZ130970146
INDEX 00 26:47:38
INDEX 01 26:49:21
TRACK 08 AUDIO
TITLE "Mood indigo"
PERFORMER "Didier Malherbe & Eric Lцhrer"
ISRC FRZ130970147
INDEX 00 31:00:03
INDEX 01 31:00:28
TRACK 09 AUDIO
TITLE "We see"
PERFORMER "Didier Malherbe & Eric Lцhrer"
ISRC FRZ130970148
INDEX 00 35:13:00
INDEX 01 35:13:73
TRACK 10 AUDIO
TITLE "Monk's mood"
PERFORMER "Didier Malherbe & Eric Lцhrer"
ISRC FRZ130970149
INDEX 00 40:03:53
INDEX 01 40:04:27
TRACK 11 AUDIO
TITLE "Think of one"
PERFORMER "Didier Malherbe & Eric Lцhrer"
ISRC FRZ130970150
INDEX 00 44:54:29
INDEX 01 44:55:40
TRACK 12 AUDIO
TITLE "Smoke gets in your eyes"
PERFORMER "Didier Malherbe & Eric Lцhrer"
ISRC FRZ130970151
INDEX 00 48:59:23
INDEX 01 48:59:33
TRACK 13 AUDIO
TITLE "Kourouts blues"
PERFORMER "Didier Malherbe & Eric Lцhrer"
ISRC FRZ130970152
INDEX 01 52:52:74
TRACK 14 AUDIO
TITLE "I remember Clifford"
PERFORMER "Didier Malherbe & Eric Lцhrer"
ISRC FRZ130970153
INDEX 00 55:29:44
INDEX 01 55:30:58
 
CD2
REM DATE 2011
REM DISCID 6C066E09
REM COMMENT ExactAudioCopy v1.0b1
PERFORMER "Didier Malherbe & Eric Lцhrer"
TITLE "Nuit d'ombrelle"
FILE "Didier Malherbe & Eric Lohrer - Nuit d'ombrelle.wv" WAVE
TRACK 01 AUDIO
TITLE "Nuit d'ombrelle"
ISRC FRZ130970155
INDEX 01 00:00:00
TRACK 02 AUDIO
TITLE "Semis d'oubli"
ISRC FRZ130970156
INDEX 00 02:52:12
INDEX 01 02:54:13
TRACK 03 AUDIO
TITLE "Songe de framboise"
ISRC FRZ130970157
INDEX 00 05:23:08
INDEX 01 05:24:00
TRACK 04 AUDIO
TITLE "Ombres rampantes"
ISRC FRZ130970158
INDEX 00 07:20:48
INDEX 01 07:21:31
TRACK 05 AUDIO
TITLE "Souvenir d'hippocampe"
ISRC FRZ130970159
INDEX 00 09:48:67
INDEX 01 09:50:59
TRACK 06 AUDIO
TITLE "Moires"
ISRC FRZ130970160
INDEX 00 12:31:65
INDEX 01 12:34:36
TRACK 07 AUDIO
TITLE "Ivres dunes"
ISRC FRZ130970161
INDEX 01 14:30:11
TRACK 08 AUDIO
TITLE "Vaguablues"
ISRC FRZ130970162
INDEX 01 17:50:66
TRACK 09 AUDIO
TITLE "Bout de la nuit"
ISRC FRZ130970163
INDEX 00 21:58:53
INDEX 01 22:01:44
 
Лог проверки качества
d:\>d:\aucdtect -d/-m0 d:\zzz\*.wav
auCDtect: CD records authenticity detector, version 0.8.2
Copyright (c) 2004 Oleg Berngardt. All rights reserved.
Copyright (c) 2004 Alexander Djourik. All rights reserved.
------------------------------------------------------------
Processing file: [01. Dark shadows.wav]
------------------------------------------------------------
This track looks like CDDA with probability 100%
------------------------------------------------------------
Processing file: [01. Nuit d'ombrelle.wav]
------------------------------------------------------------
This track looks like CDDA with probability 100%
------------------------------------------------------------
Processing file: [02. Cry me a river.wav]
------------------------------------------------------------
This track looks like CDDA with probability 100%
------------------------------------------------------------
Processing file: [02. Semis d'oubli.wav]
------------------------------------------------------------
This track looks like CDDA with probability 100%
------------------------------------------------------------
Processing file: [03. Let's cool one.wav]
------------------------------------------------------------
This track looks like CDDA with probability 100%
------------------------------------------------------------
Processing file: [03. Songe de framboise.wav]
------------------------------------------------------------
This track looks like CDDA with probability 100%
------------------------------------------------------------
Processing file: [04. Ombres rampantes.wav]
------------------------------------------------------------
This track looks like CDDA with probability 100%
------------------------------------------------------------
Processing file: [04. Round about midnight.wav]
------------------------------------------------------------
This track looks like CDDA with probability 100%
------------------------------------------------------------
Processing file: [05. Misterioso - Blue Monk.wav]
------------------------------------------------------------
This track looks like CDDA with probability 100%
------------------------------------------------------------
Processing file: [05. Souvenir d'hippocampe.wav]
------------------------------------------------------------
This track looks like CDDA with probability 99%
------------------------------------------------------------
Processing file: [06. Bopwind.wav]
------------------------------------------------------------
This track looks like CDDA with probability 99%
------------------------------------------------------------
Processing file: [06. Moires.wav]
------------------------------------------------------------
This track looks like CDDA with probability 100%
------------------------------------------------------------
Processing file: [07. Ivres dunes.wav]
------------------------------------------------------------
This track looks like CDDA with probability 100%
------------------------------------------------------------
Processing file: [07. Saint James Infirmary - Eshkhemet.wav]
------------------------------------------------------------
This track looks like CDDA with probability 100%
------------------------------------------------------------
Processing file: [08. Mood indigo.wav]
------------------------------------------------------------
This track looks like CDDA with probability 100%
------------------------------------------------------------
Processing file: [08. Vaguablues.wav]
------------------------------------------------------------
This track looks like CDDA with probability 100%
------------------------------------------------------------
Processing file: [09. Bout de la nuit.wav]
------------------------------------------------------------
This track looks like CDDA with probability 100%
------------------------------------------------------------
Processing file: [09. We see.wav]
------------------------------------------------------------
This track looks like CDDA with probability 100%
------------------------------------------------------------
Processing file: [10. Monk's mood.wav]
------------------------------------------------------------
This track looks like CDDA with probability 99%
------------------------------------------------------------
Processing file: [11. Think of one.wav]
------------------------------------------------------------
This track looks like CDDA with probability 100%
------------------------------------------------------------
Processing file: [12. Smoke gets in your eyes.wav]
------------------------------------------------------------
This track looks like CDDA with probability 100%
------------------------------------------------------------
Processing file: [13. Kourouts blues.wav]
------------------------------------------------------------
This track looks like CDDA with probability 99%
------------------------------------------------------------
Processing file: [14. I remember Clifford.wav]
------------------------------------------------------------
This track looks like CDDA with probability 100%
------------------------------------------------------------
Final Conclusion:
------------------------------------------------------------
These tracks looks like CDDA with probability 100%
Доп. информация:
 
Album Info
CD 1 "Jazz Songbook"
14 jazz standards on acoustic guitar & duduk
Compositions by Thelonious Monk, Duke Ellington, Benny Golson, Arthur Hamilton, Jerome Kern, Earl Coleman
CD 2 "Nuit d'Ombrelle" improvised suite
9 short, all improvised pieces.
The curve of dynamics is in the shape of a "whale's back", is ascending and then down to minimal
 
Состав
Didier MALHERBE, Doudouk, Soprano Sax
Eric LOHRER, Guitars
22:56
306
Нет комментариев. Ваш будет первым!