Поиск

(Modern Creative, World Fusion, Balkan Jazz) Matt Darriau Paradox Trio with Theodosii Spassov - Gambit - 2005, FLAC (tracks+.cue), lossless

(Modern Creative, World Fusion, Balkan Jazz) Matt Darriau Paradox Trio with Theodosii Spassov - Gambit - 2005, FLAC (tracks+.cue), lossless
Треклист:
Matt Darriau Paradox Trio with Theodosii Spassov - Gambit
Жанр: Modern Creative, World Fusion, Balkan Jazz
Год выпуска диска: 2005
Производитель диска: Germany, Enja
Аудио кодек: FLAC
Тип рипа: tracks+.cue
Битрейт аудио: lossless
Продолжительность: 59:50
Трэклист:
01 - Theo's Gambit
02 - Maichinko
03 - Paidushko
04 - Point
05 - Faux 7
06 - Free Gaida
07 - Cocek i Gong
08 - Tudorka
Musicians:
Matt Darriau - alto sax, clarinet, faux clarinet, gaida
Brad Shepik - electric guitar
Rufus Cappadocia - 5-string cello
Seido Salifoski - dumbek, percussion
Matt Kilmer - percussion (on track 8)
and Theodosii Spassov - kaval, vocals
All tracks written by Matt Darriau, except 2 and 8 written by Theodosii Spassov
 
Отчёт EAC
Exact Audio Copy V0.99 prebeta 5 from 4. May 2009
EAC extraction logfile from 7. June 2009, 11:58
Matt Darriau Paradox Trio with Theodosii Spassov / Gambit
Used drive : PLEXTOR DVDR PX-760A Adapter: 0 ID: 0
Read mode : Secure
Utilize accurate stream : Yes
Defeat audio cache : Yes
Make use of C2 pointers : No
Read offset correction : 30
Overread into Lead-In and Lead-Out : Yes
Fill up missing offset samples with silence : Yes
Delete leading and trailing silent blocks : No
Null samples used in CRC calculations : Yes
Used interface : Native Win32 interface for Win NT & 2000
Gap handling : Appended to previous track
Used output format : User Defined Encoder
Selected bitrate : 128 kBit/s
Quality : High
Add ID3 tag : No
Command line compressor : C:\Program Files\FLAC\flac.exe
Additional command line options : -8 -V -T "ARTIST=%a" -T "TITLE=%t" -T "ALBUM=%g" -T "DATE=%y" -T "TRACKNUMBER=%n" -T "GENRE=%m" %s
TOC of the extracted CD
Track | Start | Length | Start sector | End sector
---------------------------------------------------------
1 | 0:00.00 | 9:45.27 | 0 | 43901
2 | 9:45.27 | 10:56.34 | 43902 | 93135
3 | 20:41.61 | 5:40.21 | 93136 | 118656
4 | 26:22.07 | 5:50.10 | 118657 | 144916
5 | 32:12.17 | 6:52.58 | 144917 | 175874
6 | 39:05.00 | 3:36.34 | 175875 | 192108
7 | 42:41.34 | 12:03.24 | 192109 | 246357
8 | 54:44.58 | 5:05.21 | 246358 | 269253
Track 1
Filename H:\Matt Darriau Paradox Trio with Theodosii Spassov - Gambit (2005) [FLAC]\01 - Theo's Gambit.wav
Pre-gap length 0:00:02.00
Peak level 99.6 %
Track quality 100.0 %
Test CRC B11A0AC6
Copy CRC B11A0AC6
Accurately ripped (confidence 3) [D69FC458]
Copy OK
Track 2
Filename H:\Matt Darriau Paradox Trio with Theodosii Spassov - Gambit (2005) [FLAC]\02 - Maichinko.wav
Pre-gap length 0:00:02.45
Peak level 99.9 %
Track quality 99.9 %
Test CRC 905F1BA2
Copy CRC 905F1BA2
Accurately ripped (confidence 3) [7C88D542]
Copy OK
Track 3
Filename H:\Matt Darriau Paradox Trio with Theodosii Spassov - Gambit (2005) [FLAC]\03 - Paidushko.wav
Pre-gap length 0:00:02.68
Peak level 99.9 %
Track quality 100.0 %
Test CRC 6B46EF93
Copy CRC 6B46EF93
Accurately ripped (confidence 3) [D69CDF71]
Copy OK
Track 4
Filename H:\Matt Darriau Paradox Trio with Theodosii Spassov - Gambit (2005) [FLAC]\04 - Point.wav
Pre-gap length 0:00:02.14
Peak level 79.3 %
Track quality 100.0 %
Test CRC 971CCD51
Copy CRC 971CCD51
Accurately ripped (confidence 3) [FDC9248E]
Copy OK
Track 5
Filename H:\Matt Darriau Paradox Trio with Theodosii Spassov - Gambit (2005) [FLAC]\05 - Faux.wav
Pre-gap length 0:00:00.32
Peak level 99.9 %
Track quality 100.0 %
Test CRC B12E7B87
Copy CRC B12E7B87
Accurately ripped (confidence 3) [16EBFE97]
Copy OK
Track 6
Filename H:\Matt Darriau Paradox Trio with Theodosii Spassov - Gambit (2005) [FLAC]\06 - Free Gaida.wav
Pre-gap length 0:00:02.45
Peak level 97.2 %
Track quality 100.0 %
Test CRC A2A8401B
Copy CRC A2A8401B
Accurately ripped (confidence 3) [EE15DD56]
Copy OK
Track 7
Filename H:\Matt Darriau Paradox Trio with Theodosii Spassov - Gambit (2005) [FLAC]\07 - Cocek i Gong.wav
Peak level 97.0 %
Track quality 100.0 %
Test CRC C56943F6
Copy CRC C56943F6
Accurately ripped (confidence 3) [0F6AB483]
Copy OK
Track 8
Filename H:\Matt Darriau Paradox Trio with Theodosii Spassov - Gambit (2005) [FLAC]\08 - Tudorka.wav
Pre-gap length 0:00:03.18
Peak level 94.3 %
Track quality 100.0 %
Test CRC 001074AE
Copy CRC 001074AE
Accurately ripped (confidence 2) [0AF7E854]
Copy OK
All tracks accurately ripped
No errors occurred
End of status report
Рип оригинального диска. Есть сканы
 
Мои раздачи на трекере
Вокальное и Хоровое искусства (lossless)
Jah Wobble - Requiem
Mozart - Requiem/Реквием (Dr. Stefan Klimo, Zdenek Kosler), Exultate, jubilate (Klaus Donath); Beethoven - Mass C-dur (Anton Nanut)
Оркестровая (lossless)
Joseph Haydn - Wiedenski klasyk - Trumpet Concerto (Alberto Lizzio) / Symphony No. 94 (Alfred Scholz)/ The Quartet No. 62 (Caspar da Salo)
Зарубежный Джаз (lossless)
Enders Room - Random Guru (Johannes Enders)
Mike Stern - Between the Lines
Jon Eberson - Stash
Sun Ra and His Astro-Infinity Arkestra - Sound Sun Pleasure!!
Kenny Wheeler - Gnu High
Orquesta De Las Nubes - Me Paro Cuando Suena
Orquesta De Las Nubes - El Orden Del Azar
Jazzonia - Little Boy Don't Get Scared
VA - Warsaw Summer Jazz Days 2001 - Nastroj i zgraj zmysly
bILL fRISELL music for the films of bUSTER kEATON Go West
Fred Frith - Speechless
Jonas Hellborg - Adfa (featuring Trilok Gurtu)
Keith Jarrett - Belonging (w. Jan Garbarek)
Jan Garbarek-Bobo Stenson Quartet - Dansere
Jan Garbarek - Places
Shakti with John McLaughlin - Natural Elements (Japan release)
Shakti with John McLaughlin - A Handful of Beauty (Japan release)
Jaco Pastorius - Golden Roads
Mel Lewis and The Jazz Orchestra / Bob Brookmeyer - Live At The Village Vanguard
David Liebman and Richard Beirach - Chant
Louis Sclavis / Dominique Pifarely - Acoustic Quartet
Herbie Hancock - Future 2 Future (Japan bonus track)
Joachim Kühn with Daniel Humair and J. F. Jenny-Clark - Easy to Read
Joachim Kuhn, Mark Nauseef, Tony Newton, Miroslav Tadic - Let's Be Generous
George E. Lewis - Voyager
Christian Muthspiel, Gary Peacock, Wolfgang Muthspiel, Paul Motian
Oregon - Roots in the Sky
Oregon - Winter Light
Nana Vasconcelos, Steve Gorn, Badal Roy, Mike Richmond - Asian Journal
Charles Lloyd / Billy Higgins - Which Way Is East (2 CD)
Jamaaladeen Tacuma - Jukebox
Jamaaladeen Tacuma - Show Stopper
Jamaaladeen Tacuma - Renaissance Man
Edward Vesala Sound & Fury - Nordic Gallery
Original Silence - The Second Original Silence (Mats Gustafsson)
Eartha Kitt - Thinking Jazz
Steven Bernstein - Diaspora Hollywood
Moscow Composers Orchestra - Kings and Cabbages
John Zorn - Filmworks XXIII- el General
Avant-garde, Experimental Metal (lossless)
Praxis - Tennessee 2004
Azonic - Halo (Bill Laswell, Andy Hawkins)
Dub
VA - Axiom Dub: Mysteries of Creation (Bill Laswell)
Indie, Post-Rock & Post-Punk (lossless)
Jah Wobble - The Legend Lives On...Jah Wobbles in ''Betrayal"
Progressive & Art-Rock (lossless)
The Golden Palominos - A Dead Horse
Западноевропейский фолк (lossless)
Lena Willemark & Ale Möller - Nordan
Джаз и Блюз (DVD Video)
Dave Liebman - Sketches of Spain
Michel Portal - Jazz à Vienne
Джаз и Блюз (Видео)
Louis Sclavis Quintet "Lost On the Way" - Europa Jazz Festival
Арт-хаус и авторское кино (DVD, HD Video)
Коротко и со вкусом II - Ты и я / Kurz und gut II - Du und Ich
Коротко и со вкусом II - Близко и далеко / Kurz und gut II - Nach und fern
Коротко и со вкусом II - Стар и млад / Kurz und Gut II - Jung und Alt
Коротко и со вкусом II - Уйти или остаться / Kurz und gut II - Abhaun oder dableiben
09:38
296
Нет комментариев. Ваш будет первым!