Поиск

(Modern Creative / World Fusion / Ambient) Terje Isungset - Winter Songs - 2010, FLAC (image+.cue) lossless

(Modern Creative / World Fusion / Ambient) Terje Isungset - Winter Songs - 2010, FLAC (image+.cue) lossless
Треклист:
Terje Isungset - Winter Songs

Жанр: Modern Creative / World Fusion / Ambient
Страна-производитель диска: Norway
Год издания диска: 2010
Издатель (лейбл): Heilo 1006
Аудио кодек: FLAC (*.flac)
Тип рипа: image+.cue
Битрейт аудио: lossless
Продолжительность: 49:57
Источник (релизер): собственный рип
Наличие сканов в содержимом раздачи: да
Terje Isungset: ice horn, ice percussion, iceofone, ice harp, voice
Lena Nymark: voice
Sidsel Walstad: ice harp
Nils Økland: ice hardangerfiddle
Espen Jørgensen: ice guitar
St. Hallvard: guttene, voices
Christa & Gerald Schönefeldinger: glassharmonika
1. Fading Sun
2. Frå Hjarta
3. A Glimpse of Light
4. The Dawning
5. Arctic
6. Retrospect
7. Borrowed Soil
8. Mellom Fjell
9. Ung
10. Svartisen
11. New Day
 
Лог создания рипа
Exact Audio Copy V0.99 prebeta 5 from 4. May 2009
EAC extraction logfile from 28. March 2010, 15:26
Terje Isungset / Winter Songs
Used drive : hp DVD-RAM GH40L Adapter: 0 ID: 1
Read mode : Secure
Utilize accurate stream : Yes
Defeat audio cache : Yes
Make use of C2 pointers : No
Read offset correction : 667
Overread into Lead-In and Lead-Out : No
Fill up missing offset samples with silence : Yes
Delete leading and trailing silent blocks : No
Null samples used in CRC calculations : Yes
Used interface : Installed external ASPI interface
Used output format : User Defined Encoder
Selected bitrate : 1024 kBit/s
Quality : High
Add ID3 tag : No
Command line compressor : C:\Program Files\Exact Audio Copy\Flac\flac.exe
Additional command line options : -6 -V -T "ARTIST=%a" -T "TITLE=%t" -T "ALBUM=%g" -T "DATE=%y" -T "TRACKNUMBER=%n" -T "GENRE=%m" -T "COMMENT=EAC FLAC -6" %s
TOC of the extracted CD
Track | Start | Length | Start sector | End sector
---------------------------------------------------------
1 | 0:00.00 | 3:55.18 | 0 | 17642
2 | 3:55.18 | 6:09.52 | 17643 | 45369
3 | 10:04.70 | 2:38.71 | 45370 | 57290
4 | 12:43.66 | 3:35.73 | 57291 | 73488
5 | 16:19.64 | 3:34.13 | 73489 | 89551
6 | 19:54.02 | 4:47.05 | 89552 | 111081
7 | 24:41.07 | 6:09.07 | 111082 | 138763
8 | 30:50.14 | 6:43.36 | 138764 | 169024
9 | 37:33.50 | 5:09.04 | 169025 | 192203
10 | 42:42.54 | 3:27.36 | 192204 | 207764
11 | 46:10.15 | 3:46.28 | 207765 | 224742
Range status and errors
Selected range
Filename C:\Users\Igor\Music\eac\Terje Isungset - Winter Songs.wav
Peak level 96.6 %
Range quality 100.0 %
Test CRC D749B763
Copy CRC D749B763
Copy OK
No errors occurred
AccurateRip summary
Track 1 not present in database
Track 2 not present in database
Track 3 not present in database
Track 4 not present in database
Track 5 not present in database
Track 6 not present in database
Track 7 not present in database
Track 8 not present in database
Track 9 not present in database
Track 10 not present in database
Track 11 not present in database
None of the tracks are present in the AccurateRip database
End of status report



18:16
279
Нет комментариев. Ваш будет первым!