Вы используете незарегистрированную версию компонента "Вкладки"!

Поиск

(Modern Creative) UMO With Juhani Aaltonen, Raoul Bjorkenheim & Iro Haarla - The Sky Is Ruby - 2007, FLAC (tracks+.cue), lossless

(Modern Creative) UMO With Juhani Aaltonen, Raoul Bjorkenheim & Iro Haarla - The Sky Is Ruby - 2007, FLAC (tracks+.cue), lossless
Треклист:
UMO With Juhani Aaltonen, Raoul Bjorkenheim & Iro Haarla / The Sky Is Ruby
Жанр: Modern Creative
Страна-производитель диска: Finland
Год издания: 2007
Издатель (лейбл): TUM Records
Номер по каталогу: TUM CD 017
Аудиокодек: FLAC (*.flac)
Тип рипа: tracks+.cue
Битрейт аудио: lossless
Продолжительность: 60:45
Источник (релизер): whatcd
Наличие сканов в содержимом раздачи: нет
Треклист:
1 The Sky Is Ruby 9:32
2 Questions 17:52
3 In The Green Light 9:12
4 The Bloody Fields 9:01
5 Lost Love 8:59
6 Fiery Flight 5:51
 
Лог создания рипа
Exact Audio Copy V1.0 beta 2 from 29. April 2011
EAC extraction logfile from 6. May 2012, 13:28
UMO Jazz Orchestra with Juhani Aaltonen, Raoul Björkenheim, Iro Haarla & Mikko Hassinen / The Sky is Ruby
Used drive : TSSTcorpCDDVDW SH-S223L Adapter: 1 ID: 1
Read mode : Secure
Utilize accurate stream : Yes
Defeat audio cache : Yes
Make use of C2 pointers : No
Read offset correction : 6
Overread into Lead-In and Lead-Out : No
Fill up missing offset samples with silence : Yes
Delete leading and trailing silent blocks : No
Null samples used in CRC calculations : Yes
Used interface : Native Win32 interface for Win NT & 2000
Gap handling : Appended to previous track
Used output format : User Defined Encoder
Selected bitrate : 896 kBit/s
Quality : High
Add ID3 tag : No
Command line compressor : C:\Program Files (x86)\Exact Audio Copy\Flac\flac.exe
Additional command line options : -8 -V -T "ARTIST=%artist%" -T "TITLE=%title%" -T "ALBUM=%albumtitle%" -T "DATE=%year%" -T "TRACKNUMBER=%tracknr%" -T "GENRE=%genre%" -T "PERFORMER=%albuminterpret%" -T "COMPOSER=%composer%" %haslyrics%--tag-from-file=LYRIC
TOC of the extracted CD
Track | Start | Length | Start sector | End sector
---------------------------------------------------------
1 | 0:00.00 | 9:34.01 | 0 | 43050
2 | 9:34.01 | 17:54.35 | 43051 | 123635
3 | 27:28.36 | 9:14.14 | 123636 | 165199
4 | 36:42.50 | 9:08.53 | 165200 | 206352
5 | 45:51.28 | 9:03.02 | 206353 | 247079
6 | 54:54.30 | 5:51.41 | 247080 | 273445
Track 1
Filename M:\Music\What 4\Raoul Björkenheim - The Sky is Ruby (2007) [FLAC]\01 - The Sky is Ruby.wav
Pre-gap length 0:00:02.00
Peak level 93.3 %
Extraction speed 2.8 X
Track quality 99.9 %
Test CRC 9599A117
Copy CRC 9599A117
Accurately ripped (confidence 2) [26D1833E] (AR v1)
Copy OK
Track 2
Filename M:\Music\What 4\Raoul Björkenheim - The Sky is Ruby (2007) [FLAC]\02 - Questions.wav
Pre-gap length 0:00:01.80
Peak level 93.3 %
Extraction speed 3.9 X
Track quality 100.0 %
Test CRC 99392562
Copy CRC 99392562
Accurately ripped (confidence 2) [0C00A8CA] (AR v1)
Copy OK
Track 3
Filename M:\Music\What 4\Raoul Björkenheim - The Sky is Ruby (2007) [FLAC]\03 - In the Green Light.wav
Pre-gap length 0:00:01.80
Peak level 93.3 %
Extraction speed 4.6 X
Track quality 100.0 %
Test CRC 0A5EFFB5
Copy CRC 0A5EFFB5
Accurately ripped (confidence 2) [A735DDF9] (AR v1)
Copy OK
Track 4
Filename M:\Music\What 4\Raoul Björkenheim - The Sky is Ruby (2007) [FLAC]\04 - The Bloody Fields.wav
Pre-gap length 0:00:01.80
Peak level 93.3 %
Extraction speed 5.0 X
Track quality 100.0 %
Test CRC DA0CE7DA
Copy CRC DA0CE7DA
Accurately ripped (confidence 2) [EE7A3596] (AR v1)
Copy OK
Track 5
Filename M:\Music\What 4\Raoul Björkenheim - The Sky is Ruby (2007) [FLAC]\05 - Lost Love.wav
Pre-gap length 0:00:07.61
Peak level 92.3 %
Extraction speed 5.4 X
Track quality 100.0 %
Test CRC 59A2C866
Copy CRC 59A2C866
Accurately ripped (confidence 2) [94C914EA] (AR v1)
Copy OK
Track 6
Filename M:\Music\What 4\Raoul Björkenheim - The Sky is Ruby (2007) [FLAC]\06 - Fiery Flight.wav
Pre-gap length 0:00:04.00
Peak level 93.3 %
Extraction speed 5.5 X
Track quality 100.0 %
Test CRC 70AECCD3
Copy CRC 70AECCD3
Accurately ripped (confidence 2) [5DDF1D7A] (AR v1)
Copy OK
All tracks accurately ripped
No errors occurred
End of status report
==== Log checksum B966A5CE58FBB8C08E8BF536CAD90921219D446E60B3AFF49825AA4F4C0539C6 ====
 
Содержание индексной карты (.CUE)
REM GENRE "Big Band"
REM DATE 2007
REM DISCID 4D0E3D06
REM COMMENT "ExactAudioCopy v1.0b2"
PERFORMER "UMO Jazz Orchestra with Juhani Aaltonen, Raoul Bjцrkenheim, Iro Haarla & Mikk..."
TITLE "The Sky is Ruby"
FILE "01 - The Sky is Ruby.wav" WAVE
TRACK 01 AUDIO
TITLE "The Sky is Ruby"
PERFORMER "UMO Jazz Orchestra with Juhani Aaltonen, Raoul Bjцrkenheim, Iro Haarla & Mikk..."
ISRC FITU90700001
INDEX 01 00:00:00
TRACK 02 AUDIO
TITLE "Questions"
PERFORMER "UMO Jazz Orchestra with Juhani Aaltonen, Raoul Bjцrkenheim, Iro Haarla & Mikk..."
ISRC FITU90700002
INDEX 00 09:32:16
FILE "02 - Questions.wav" WAVE
INDEX 01 00:00:00
TRACK 03 AUDIO
TITLE "In the Green Light"
PERFORMER "UMO Jazz Orchestra with Juhani Aaltonen, Raoul Bjцrkenheim, Iro Haarla & Mikk..."
ISRC FITU90700003
INDEX 00 17:52:50
FILE "03 - In the Green Light.wav" WAVE
INDEX 01 00:00:00
TRACK 04 AUDIO
TITLE "The Bloody Fields"
PERFORMER "UMO Jazz Orchestra with Juhani Aaltonen, Raoul Bjцrkenheim, Iro Haarla & Mikk..."
ISRC FITU90700004
INDEX 00 09:12:29
FILE "04 - The Bloody Fields.wav" WAVE
INDEX 01 00:00:00
TRACK 05 AUDIO
TITLE "Lost Love"
PERFORMER "UMO Jazz Orchestra with Juhani Aaltonen, Raoul Bjцrkenheim, Iro Haarla & Mikk..."
ISRC FITU90700005
INDEX 00 09:01:07
FILE "05 - Lost Love.wav" WAVE
INDEX 01 00:00:00
TRACK 06 AUDIO
TITLE "Fiery Flight"
PERFORMER "UMO Jazz Orchestra with Juhani Aaltonen, Raoul Bjцrkenheim, Iro Haarla & Mikk..."
ISRC FITU90700006
INDEX 00 08:59:02
FILE "06 - Fiery Flight.wav" WAVE
INDEX 01 00:00:00
Доп. информация: Recorded on April 24 and 25, 2006 at SoundTeam Godzinsky Studio, Kirkkonummi, Finland.
 
Состав
Alto Saxophone – Mikko Makinen, Pentti Lahti
Baritone Saxophone, Bass Saxophone – Pertti Paivinen
Bass – Ville Huolman
Clarinet – Mikko Makinen, Teemu Salminen
Clarinet [Bass] – Mikko Makinen, Pertti Paivinen
Conductor – Mikko Hassinen
Drums – Markus Ketola
Electric Guitar, Gong, Drums [Bass] – Raoul Bjorkenheim
Flute – Olli Ojajarvi, Pentti Lahti, Teemu Salminen
Flute [Alto] – Juhani Aaltonen
Flute [Bass], Piccolo Flute – Pentti Lahti
Piano, Harp – Iro Haarla
Sopranino Saxophone – Pentti Lahti
Soprano Saxophone – Pentti Lahti, Pertti Paivinen*
Tenor Saxophone – Juhani Aaltonen, Olli Ojajarvi, Teemu Salminen
Trombone – Jari Hongisto, Mikko Mustonen, Pekka Laukkanen
Trombone [Bass] – Mikael Langbacka
Trumpet – Jan Kohlin, Mikko Pettinen, Tero Saarti, Timo Paasonen
Any questions -> support@pro-jazz.com. По всем вопросам пишите -> support@pro-jazz.com
01:36
118
Нет комментариев. Ваш будет первым!