Вы используете незарегистрированную версию компонента "Вкладки"!

Поиск

(Modern Creative / Tzadik Radical Jewish Culture) Marty Ehrlich - Fables - 2010, FLAC (image+.cue) lossless

(Modern Creative / Tzadik Radical Jewish Culture) Marty Ehrlich - Fables - 2010, FLAC (image+.cue) lossless
Треклист:
Marty Ehrlich - Fables

Жанр: Modern Creative / Tzadik Radical Jewish Culture
Страна-производитель диска: USA
Год издания диска: 2010
Издатель (лейбл): Tzadik TZ 8155
Аудио кодек: FLAC (*.flac)
Тип рипа: image+.cue
Битрейт аудио: lossless
Продолжительность: 45:32
Источник (релизер): собственный рип
Наличие сканов в содержимом раздачи: нет
Marty Ehrlich: clarinet, bass clarinet, flute, alto and soprano saxophones
Hankus Netsky: piano, accordion
Marcus Rojas: tuba
Jerome Harris: acoustic bass guitar
1. Scroll No. 1
2. The Thimble and the Thread
3. Es Felt
4. Wednesday's Waltz
5. Rozo D'Shabbos
6. Scroll No. 2
7. The Mirror Waltz
8. The Lion's Tanz
9. I'm Growing Into My Hat
10. Scroll No. 3
 
Лог создания рипа
Exact Audio Copy V0.99 prebeta 4 from 23. January 2008
EAC extraction logfile from 26. October 2010, 20:54
Marty Ehrlich / Fables
Used drive : TSSTcorpCD/DVDW SH-S182M Adapter: 2 ID: 1
Read mode : Secure
Utilize accurate stream : Yes
Defeat audio cache : Yes
Make use of C2 pointers : No
Read offset correction : 6
Overread into Lead-In and Lead-Out : No
Fill up missing offset samples with silence : Yes
Delete leading and trailing silent blocks : No
Null samples used in CRC calculations : Yes
Used interface : Installed external ASPI interface
Used output format : User Defined Encoder
Selected bitrate : 1024 kBit/s
Quality : High
Add ID3 tag : No
Command line compressor : C:\Program Files\Exact Audio Copy\Flac\flac.exe
Additional command line options : -6 -V -T "ARTIST=%a" -T "TITLE=%t" -T "ALBUM=%g" -T "DATE=%y" -T "TRACKNUMBER=%n" -T "GENRE=%m" -T "COMMENT=EAC FLAC -6" %s
TOC of the extracted CD
Track | Start | Length | Start sector | End sector
---------------------------------------------------------
1 | 0:00.00 | 5:15.40 | 0 | 23664
2 | 5:15.40 | 3:27.50 | 23665 | 39239
3 | 8:43.15 | 6:12.63 | 39240 | 67202
4 | 14:56.03 | 4:10.27 | 67203 | 85979
5 | 19:06.30 | 5:30.69 | 85980 | 110798
6 | 24:37.24 | 4:35.09 | 110799 | 131432
7 | 29:12.33 | 3:38.46 | 131433 | 147828
8 | 32:51.04 | 3:39.60 | 147829 | 164313
9 | 36:30.64 | 3:38.66 | 164314 | 180729
10 | 40:09.55 | 5:22.39 | 180730 | 204918
Range status and errors
Selected range
Filename C:\Users\Igor\Music\eac\Marty Ehrlich - Fables.wav
Peak level 96.6 %
Range quality 100.0 %
Test CRC F6BA4A48
Copy CRC F6BA4A48
Copy OK
No errors occurred
AccurateRip summary
Track 1 not present in database
Track 2 not present in database
Track 3 not present in database
Track 4 not present in database
Track 5 not present in database
Track 6 not present in database
Track 7 not present in database
Track 8 not present in database
Track 9 not present in database
Track 10 not present in database
None of the tracks are present in the AccurateRip database
End of status report
По всем вопросам пишите личное сообщение пользователю M0p94ok.
04:35
200
Нет комментариев. Ваш будет первым!