Вы используете незарегистрированную версию компонента "Вкладки"!

Поиск

(Modern Creative) Tony Malaby (Drew Gress, Paul Motian) - Adobe - 2004, FLAC (tracks+.cue), lossless

(Modern Creative) Tony Malaby (Drew Gress, Paul Motian) - Adobe - 2004, FLAC (tracks+.cue), lossless
Треклист:
Tony Malaby / Adobe
Жанр: Modern Creative
Страна-производитель диска: US
Год издания диска: 2004
Издатель (лейбл): Sunnyside
Номер по каталогу: 1137
Аудиокодек: FLAC (*.flac)
Тип рипа: tracks+.cue
Битрейт аудио: lossless
Продолжительность: 52:33
Источник (релизер): вот.сиди
Наличие сканов в содержимом раздачи: нет
Треклист:
1 Humpty Dumpty (Coleman) 5:28
2 Maine (Malaby) 6:12
3 Adobe Blues (Malaby) 4:41
4 Dorotea La Cautiva (Luna) 9:28
5 No Brainer (Sanchez) 5:41
6 Mia (Malaby) 5:46
7 What Is This Thing Called Love? (Porter) 4:49
8 Cosas (Malaby) 6:28
9 Gone (Gress, Malaby, Motian) 3:56
 
Лог создания рипа
Exact Audio Copy V1.0 beta 3 from 29. August 2011
EAC extraction logfile from 10. December 2011, 5:26
Tony Malaby / Adobe
Used drive : _NEC DVD_RW ND-3520A Adapter: 1 ID: 1
Read mode : Secure
Utilize accurate stream : Yes
Defeat audio cache : Yes
Make use of C2 pointers : No
Read offset correction : 48
Overread into Lead-In and Lead-Out : No
Fill up missing offset samples with silence : Yes
Delete leading and trailing silent blocks : No
Null samples used in CRC calculations : Yes
Used interface : Native Win32 interface for Win NT & 2000
Gap handling : Appended to previous track
Used output format : User Defined Encoder
Selected bitrate : 768 kBit/s
Quality : High
Add ID3 tag : No
Command line compressor : C:\Program Files\Exact Audio Copy\FLAC\FLAC.EXE
Additional command line options : -6 -V -T "ARTIST=%artist%" -T "TITLE=%title%" -T "ALBUM=%albumtitle%" -T "DATE=%year%" -T "TRACKNUMBER=%tracknr%" -T "GENRE=%genre%" -T "COMMENT=%comment%" -T "BAND=%albuminterpret%" -T "ALBUMARTIST=%albuminterpret%" -T "COMPOSER=%composer%" %haslyrics%--tag-from-file=LYRICS="%lyricsfile%"%haslyrics% -T "DISCNUMBER=%cdnumber%" -T "TOTALDISCS=%totalcds%" -T "TOTALTRACKS=%numtracks%" %hascover%--picture="%coverfile%"%hascover% %source% -o %dest%
TOC of the extracted CD
Track | Start | Length | Start sector | End sector
---------------------------------------------------------
1 | 0:00.00 | 5:28.39 | 0 | 24638
2 | 5:28.39 | 6:12.57 | 24639 | 52595
3 | 11:41.21 | 4:41.60 | 52596 | 73730
4 | 16:23.06 | 9:28.04 | 73731 | 116334
5 | 25:51.10 | 5:41.09 | 116335 | 141918
6 | 31:32.19 | 5:46.15 | 141919 | 167883
7 | 37:18.34 | 4:49.49 | 167884 | 189607
8 | 42:08.08 | 6:28.29 | 189608 | 218736
9 | 48:36.37 | 3:56.52 | 218737 | 236488
Track 1
Filename C:\Documents and Settings\User\Tony Malaby - Adobe 2003\01 Humpty Dumpty.wav
Pre-gap length 0:00:02.00
Peak level 100.0 %
Extraction speed 4.1 X
Track quality 100.0 %
Test CRC B95B78F4
Copy CRC B95B78F4
Track not present in AccurateRip database
Copy OK
Track 2
Filename C:\Documents and Settings\User\Tony Malaby - Adobe 2003\02 Maine.wav
Peak level 94.1 %
Extraction speed 4.6 X
Track quality 100.0 %
Test CRC 5E72922B
Copy CRC 5E72922B
Track not present in AccurateRip database
Copy OK
Track 3
Filename C:\Documents and Settings\User\Tony Malaby - Adobe 2003\03 Adobe Blues.wav
Peak level 100.0 %
Extraction speed 4.9 X
Track quality 100.0 %
Test CRC C9025953
Copy CRC C9025953
Track not present in AccurateRip database
Copy OK
Track 4
Filename C:\Documents and Settings\User\Tony Malaby - Adobe 2003\04 Dorotea La Cautiva.wav
Peak level 100.0 %
Extraction speed 5.2 X
Track quality 99.9 %
Test CRC 1AC12D86
Copy CRC 1AC12D86
Track not present in AccurateRip database
Copy OK
Track 5
Filename C:\Documents and Settings\User\Tony Malaby - Adobe 2003\05 No Brainer.wav
Peak level 100.0 %
Extraction speed 5.9 X
Track quality 100.0 %
Test CRC 67692274
Copy CRC 67692274
Track not present in AccurateRip database
Copy OK
Track 6
Filename C:\Documents and Settings\User\Tony Malaby - Adobe 2003\06 Mia.wav
Peak level 100.0 %
Extraction speed 6.1 X
Track quality 100.0 %
Test CRC E70B041E
Copy CRC E70B041E
Track not present in AccurateRip database
Copy OK
Track 7
Filename C:\Documents and Settings\User\Tony Malaby - Adobe 2003\07 What Is This Thing Called Love.wav
Peak level 100.0 %
Extraction speed 5.4 X
Track quality 100.0 %
Test CRC 8DBE493A
Copy CRC 8DBE493A
Track not present in AccurateRip database
Copy OK
Track 8
Filename C:\Documents and Settings\User\Tony Malaby - Adobe 2003\08 Cosas.wav
Peak level 100.0 %
Extraction speed 7.0 X
Track quality 100.0 %
Test CRC F1FB2992
Copy CRC F1FB2992
Track not present in AccurateRip database
Copy OK
Track 9
Filename C:\Documents and Settings\User\Tony Malaby - Adobe 2003\09 Gone.wav
Peak level 100.0 %
Extraction speed 5.7 X
Track quality 99.9 %
Test CRC DE6D7B62
Copy CRC DE6D7B62
Track not present in AccurateRip database
Copy OK
None of the tracks are present in the AccurateRip database
No errors occurred
End of status report
==== Log checksum B15A16B92BC3A22794FE2EB6216605C3DFDAF8218B815AEC847031A46FA7D813 ====
 
Содержание индексной карты (.CUE)
REM GENRE Jazz
REM DATE 2003
REM DISCID 720C5109
REM COMMENT "ExactAudioCopy v1.0b3"
PERFORMER "Tony Malaby"
TITLE "Adobe"
FILE "01 Humpty Dumpty.wav" WAVE
TRACK 01 AUDIO
TITLE "Humpty Dumpty"
PERFORMER "Tony Malaby"
INDEX 01 00:00:00
FILE "02 Maine.wav" WAVE
TRACK 02 AUDIO
TITLE "Maine"
PERFORMER "Tony Malaby"
INDEX 01 00:00:00
FILE "03 Adobe Blues.wav" WAVE
TRACK 03 AUDIO
TITLE "Adobe Blues"
PERFORMER "Tony Malaby"
INDEX 01 00:00:00
FILE "04 Dorotea La Cautiva.wav" WAVE
TRACK 04 AUDIO
TITLE "Dorotea La Cautiva"
PERFORMER "Tony Malaby"
INDEX 01 00:00:00
FILE "05 No Brainer.wav" WAVE
TRACK 05 AUDIO
TITLE "No Brainer"
PERFORMER "Tony Malaby"
INDEX 01 00:00:00
FILE "06 Mia.wav" WAVE
TRACK 06 AUDIO
TITLE "Mia"
PERFORMER "Tony Malaby"
INDEX 01 00:00:00
FILE "07 What Is This Thing Called Love.wav" WAVE
TRACK 07 AUDIO
TITLE "What Is This Thing Called Love"
PERFORMER "Tony Malaby"
INDEX 01 00:00:00
FILE "08 Cosas.wav" WAVE
TRACK 08 AUDIO
TITLE "Cosas"
PERFORMER "Tony Malaby"
INDEX 01 00:00:00
FILE "09 Gone.wav" WAVE
TRACK 09 AUDIO
TITLE "Gone"
PERFORMER "Tony Malaby"
INDEX 01 00:00:00
Доп. информация: Recording Date: Mar 25, 2003
 
Об альбоме (сборнике)
Tenor saxophonist Tony Malaby's trio record with bassist Drew Gress and drummer Paul Motian falls somewhere between the pianoless groups of Sonny Rollins and Ornette Coleman, starting off with Ornette's "Humpty Dumpty." The music is sparse much of the time, but tied at least loosely to chordal improvisation. Malaby is usually the lead voice and sets the direction of the music, although Gress and Motian are important if subtle contributors. Malaby varies the emotions and tempos, with the searching and mournful "Dorotea la Cautiva," the adventurous "No Brainer," "What Is This Thing Called Love," and "Cosas" (which is based on "All The Things You Are") being among the highlights. Malaby gives the impression that he could improvise endlessly without running out of interesting ideas.
 
Состав
Drew Gress - Bass (Acoustic), Double Bass
Tony Malaby - Sax (Soprano), Sax (Tenor)
Paul Motian - Drums
Any questions -> support@pro-jazz.com. По всем вопросам пишите -> support@pro-jazz.com
22:56
186
Нет комментариев. Ваш будет первым!