Поиск

(Modern Creative) Theo Jorgensmann Quartet - Snijbloemen - 2000, APE (image+.cue), lossless

Треклист:
Theo Jorgensmann Quartet - Snijbloemen
Жанр: Modern Creative
Год выпуска диска: 2000
Производитель диска: Switzerland (hatOLOGY)
Аудио кодек: APE
Тип рипа: image+.cue
Битрейт аудио: lossless
Продолжительность: 53:56
Трэклист:
1 Kospi\ Jorgensmann 10:31
2 Snijbloemen\ Jorgensmann 5:14
3 Klaipeda\ Kugel 4:47
4 Dark Room\ Dell 6:31
5 Wiesengrund\ Dell 6:58
6 La Fortuna\ Jorgensmann, Ramond 2:40
7 Snijbloemen [Take 2]\ Jorgensmann 6:07
8 Nr. 59\ Dell, Jorgensmann, Kugel ... 3:06
9 Dark Room [Take 2]\ Dell 7:59
Christopher Dell- Vibraphone
Theo Jorgensmann- Clarinet
Klaus Kugel- Percussion, Drums
Christian Ramond- Double Bass
Доп. информация: Рип сделан собственноручно,сканы обложек внутри.
 
Отчёт EAC об извлечении, выполненном 11. сентября 2008
Exact Audio Copy V0.99 prebeta 3 from 28. July 2007
Отчёт EAC об извлечении, выполненном 11. сентября 2008, 17:04
Theo Jorgensmann Quartet / Snijbloemen
Дисковод: Optiarc DVD RW AD-7203A Adapter: 0 ID: 1
Режим чтения : Достоверность
Использование точного потока : Да
Отключение кэша аудио : Да
Использование указателей C2 : Нет
Коррекция смещения при чтении : 48
Способность читать области Lead-in и Lead-out : Нет
Заполнение пропущенных сэмплов тишиной : Да
Удаление блоков с тишиной в начале и конце : Нет
При вычислениях CRC использовались нулевые сэмплы : Да
Интерфейс : Установленный внешний ASPI-интерфейс
Выходной формат : Monkey's Audio Lossless Encoder v3.99 DLL
Формат сэмплов : Normal Lossless Compression
TOC извлечённого CD
Трек | Старт | Длительность | Начальный сектор | Конечный сектор
---------------------------------------------------------------------
1 | 0:00.00 | 10:31.62 | 0 | 47386
2 | 10:31.62 | 5:14.00 | 47387 | 70936
3 | 15:45.62 | 4:47.00 | 70937 | 92461
4 | 20:32.62 | 6:31.00 | 92462 | 121786
5 | 27:03.62 | 6:58.00 | 121787 | 153136
6 | 34:01.62 | 2:40.00 | 153137 | 165136
7 | 36:41.62 | 6:07.00 | 165137 | 192661
8 | 42:48.62 | 3:06.00 | 192662 | 206611
9 | 45:54.62 | 7:59.13 | 206612 | 242549
Характеристики диапазона извлечения и сообщения об ошибках
Выбранный диапазон
Имя файла C:\Documents and Settings\1\Рабочий стол\Theo Jorgensmann Quartet - Snijbloemen.ape
Пиковый уровень 99.7 %
Качество диапазона 99.9 %
CRC теста 2258D132
CRC копии 2258D132
Копирование... OK
Ошибок не произошло
AccurateRip: сводка
Трек 1 нет в базе данных
Трек 2 нет в базе данных
Трек 3 нет в базе данных
Трек 4 нет в базе данных
Трек 5 нет в базе данных
Трек 6 нет в базе данных
Трек 7 нет в базе данных
Трек 8 нет в базе данных
Трек 9 нет в базе данных
Ни одного трека нет в базе AccurateRip
Конец отчёта
 
Review by Steven Loewy
Review by Steven Loewy
Clarinetist Theo Jorgensmann has to be counted among the handful of consummate modern improvisers on his instrument. His playing evinces a brooding quality, devoid of overt sentimentality, yet he carries a hard bop aesthetic forward to engage modern harmonies and concepts of freedom. Intervallic leaps, technical virtuosity, and melodic invention are all elements in his improvisations. Here, he performs nine pieces (two are powerful alternate takes) written by members of his quartet, which includes Christopher Dell on vibes, Christian Ramond on bass, and Klaus Kugel on drums. There is a somewhat limited palette to the whole that the fine performances cannot always overcome. An overall somber hue, a touch of pessimism even, but nonetheless some wonderfully pensive moments ensue.
 
PROMT :)
Кларнетист Theo Jorgensmann должен быть посчитан среди горстки законченных современных импровизаторов на его инструменте. Его игра проявляет задумчивое качество, лишенное откровенной сентиментальности, все же он несет твердый бибоп, эстетический вперед, чтобы затронуть современные гармонии и понятия(концепции) свободы. Прыжки Intervallic, техническая виртуозность, и мелодичное изобретение(инвенция) - все элементы в его импровизациях. Здесь, он выступает, девять пьес(две-полностью альтернативные) , написанный членами его квартета, который включает Кристофера Dell на вибрафоне, христианина Ramond на басе, и Klaus Kugel на барабанах. Есть несколько ограниченная палитра к целому, которое могут не всегда преодолевать прекрасные исполнения. Следует полный мрачный оттенок, легкий пессимизм даже, но тем не менее несколько чудесно задумчивых моментов(мгновений).
Приватный:
Нет (DHT включён)
Размер:
256.59 Мб (269,055,311 байт) » файлов: 7
Участники:
0 раздают, 0 качают (0 участников всего)
Внешние участники:
2 раздают, 1 качают (3 участников всего) [ Обновить ]
No seeders - write a personal message to user M0p94ok. Нет сидеров - пишите личное сообщение пользователю M0p94ok.
03:28
73
Нет комментариев. Ваш будет первым!