Вы используете незарегистрированную версию компонента "Вкладки"!

Поиск

(Modern Creative) The Nels Cline Singers - The Giant Pin - 2004, FLAC (tracks+.cue), lossless

Треклист:
The Nels Cline Singers - The Giant Pin
Жанр: Modern Creative
Год выпуска диска: 2004
Производитель диска: US (Cryptogramophone Records) [CG120]
Аудио кодек: FLAC
Тип рипа: tracks+.cue
Битрейт аудио: lossless
Продолжительность: 73:04
Трэклист:
Devin Hoff - contrabass
Nels Cline - electric guitars, effects
Scott Amendola - drums, percussion, electronics, loops, treatments, electric mbira
Greg Saunier - voice (#3)
Jon Brion - chamberlin, sampler, celeste, harmonium (#3, #6)
1. Blues, Too
2. Fly Fly
3. He Still Carries a Torch For Her
4. The Ballad of Devin Hoff
5. The Friar
6. Something About David H.
7. Bright Moon
8. A Boy Needs A Door
9. Square King
10. Spell
11. Watch Over Us
 
.log
Exact Audio Copy V0.99 prebeta 5 from 4. May 2009
EAC extraction logfile from 5. July 2010, 4:56
The Nels Cline Singers / The Giant Pin
Used drive : HL-DT-STDVDRAM GH41N Adapter: 0 ID: 0
Read mode : Secure
Utilize accurate stream : Yes
Defeat audio cache : Yes
Make use of C2 pointers : No
Read offset correction : 667
Overread into Lead-In and Lead-Out : No
Fill up missing offset samples with silence : Yes
Delete leading and trailing silent blocks : No
Null samples used in CRC calculations : Yes
Used interface : Native Win32 interface for Win NT & 2000
Gap handling : Appended to previous track
Used output format : User Defined Encoder
Selected bitrate : 768 kBit/s
Quality : High
Add ID3 tag : No
Command line compressor : C:\Program Files\Exact Audio Copy\Flac\flac.exe
Additional command line options : -V -8 -T "artist=%a" -T "title=%t" -T "album=%g" -T "date=%y" -T "tracknumber=%n" -T "genre=%m" %s
TOC of the extracted CD
Track | Start | Length | Start sector | End sector
---------------------------------------------------------
1 | 0:00.00 | 3:13.36 | 0 | 14510
2 | 3:13.36 | 7:03.49 | 14511 | 46284
3 | 10:17.10 | 6:43.68 | 46285 | 76577
4 | 17:01.03 | 7:48.45 | 76578 | 111722
5 | 24:49.48 | 1:15.25 | 111723 | 117372
6 | 26:04.73 | 10:12.01 | 117373 | 163273
7 | 36:16.74 | 11:03.26 | 163274 | 213024
8 | 47:20.25 | 4:34.42 | 213025 | 233616
9 | 51:54.67 | 5:26.31 | 233617 | 258097
10 | 57:21.23 | 9:22.39 | 258098 | 300286
11 | 66:43.62 | 6:25.34 | 300287 | 329195
Track 1
Filename D:\The Nels Cline Singers - The Giant Pin (2004) [FLAC] {CG120}\01 Blues, Too.wav
Pre-gap length 0:00:02.00
Peak level 94.4 %
Track quality 100.0 %
Test CRC 042ED761
Copy CRC 042ED761
Copy OK
Track 2
Filename D:\The Nels Cline Singers - The Giant Pin (2004) [FLAC] {CG120}\02 Fly Fly.wav
Peak level 94.4 %
Track quality 100.0 %
Test CRC 711FE51F
Copy CRC 711FE51F
Copy OK
Track 3
Filename D:\The Nels Cline Singers - The Giant Pin (2004) [FLAC] {CG120}\03 He Still Carries a Torch for Her.wav
Pre-gap length 0:00:01.08
Peak level 94.4 %
Track quality 100.0 %
Test CRC D463E604
Copy CRC D463E604
Copy OK
Track 4
Filename D:\The Nels Cline Singers - The Giant Pin (2004) [FLAC] {CG120}\04 The Ballad of Devin Hoff.wav
Pre-gap length 0:00:05.02
Peak level 94.4 %
Track quality 100.0 %
Test CRC D0826048
Copy CRC D0826048
Copy OK
Track 5
Filename D:\The Nels Cline Singers - The Giant Pin (2004) [FLAC] {CG120}\05 The Friar.wav
Pre-gap length 0:00:01.50
Peak level 49.0 %
Track quality 100.0 %
Test CRC 6480607E
Copy CRC 6480607E
Copy OK
Track 6
Filename D:\The Nels Cline Singers - The Giant Pin (2004) [FLAC] {CG120}\06 Something About David H..wav
Pre-gap length 0:00:01.89
Peak level 94.4 %
Track quality 99.9 %
Test CRC 772A53F8
Copy CRC 772A53F8
Copy OK
Track 7
Filename D:\The Nels Cline Singers - The Giant Pin (2004) [FLAC] {CG120}\07 Bright Moon.wav
Pre-gap length 0:00:03.40
Peak level 94.4 %
Track quality 100.0 %
Test CRC 9713D81E
Copy CRC 9713D81E
Copy OK
Track 8
Filename D:\The Nels Cline Singers - The Giant Pin (2004) [FLAC] {CG120}\08 A Boy Needs a Door.wav
Pre-gap length 0:00:01.92
Peak level 46.4 %
Track quality 100.0 %
Test CRC D142F442
Copy CRC D142F442
Copy OK
Track 9
Filename D:\The Nels Cline Singers - The Giant Pin (2004) [FLAC] {CG120}\09 Square King.wav
Pre-gap length 0:00:22.72
Peak level 94.4 %
Track quality 99.9 %
Test CRC 8536D705
Copy CRC 8536D705
Copy OK
Track 10
Filename D:\The Nels Cline Singers - The Giant Pin (2004) [FLAC] {CG120}\10 Spell.wav
Pre-gap length 0:00:03.13
Peak level 64.5 %
Track quality 99.9 %
Test CRC 8527578E
Copy CRC 8527578E
Copy OK
Track 11
Filename D:\The Nels Cline Singers - The Giant Pin (2004) [FLAC] {CG120}\11 Watch Over Us.wav
Pre-gap length 0:00:04.41
Peak level 94.4 %
Track quality 100.0 %
Test CRC 65CC189C
Copy CRC 65CC189C
Copy OK
No errors occurred
End of status report
 
.cue
REM DATE 2004
REM DISCID 8C11250B
REM COMMENT "ExactAudioCopy v0.99pb5"
PERFORMER "The Nels Cline Singers"
TITLE "The Giant Pin"
FILE "01 Blues, Too.wav" WAVE
TRACK 01 AUDIO
TITLE "Blues, Too"
PERFORMER "The Nels Cline Singers"
INDEX 01 00:00:00
FILE "02 Fly Fly.wav" WAVE
TRACK 02 AUDIO
TITLE "Fly Fly"
PERFORMER "The Nels Cline Singers"
INDEX 01 00:00:00
TRACK 03 AUDIO
TITLE "He Still Carries a Torch for Her"
PERFORMER "The Nels Cline Singers"
INDEX 00 07:02:43
FILE "03 He Still Carries a Torch for Her.wav" WAVE
INDEX 01 00:00:00
TRACK 04 AUDIO
TITLE "The Ballad of Devin Hoff"
PERFORMER "The Nels Cline Singers"
INDEX 00 06:38:66
FILE "04 The Ballad of Devin Hoff.wav" WAVE
INDEX 01 00:00:00
TRACK 05 AUDIO
TITLE "The Friar"
PERFORMER "The Nels Cline Singers"
INDEX 00 07:47:07
FILE "05 The Friar.wav" WAVE
INDEX 01 00:00:00
TRACK 06 AUDIO
TITLE "Something About David H."
PERFORMER "The Nels Cline Singers"
INDEX 00 01:13:33
FILE "06 Something About David H..wav" WAVE
INDEX 01 00:00:00
TRACK 07 AUDIO
TITLE "Bright Moon"
PERFORMER "The Nels Cline Singers"
INDEX 00 10:08:46
FILE "07 Bright Moon.wav" WAVE
INDEX 01 00:00:00
TRACK 08 AUDIO
TITLE "A Boy Needs a Door"
PERFORMER "The Nels Cline Singers"
INDEX 00 11:01:32
FILE "08 A Boy Needs a Door.wav" WAVE
INDEX 01 00:00:00
TRACK 09 AUDIO
TITLE "Square King"
PERFORMER "The Nels Cline Singers"
INDEX 00 04:11:63
FILE "09 Square King.wav" WAVE
INDEX 01 00:00:00
TRACK 10 AUDIO
TITLE "Spell"
PERFORMER "The Nels Cline Singers"
INDEX 00 05:23:21
FILE "10 Spell.wav" WAVE
INDEX 01 00:00:00
TRACK 11 AUDIO
TITLE "Watch Over Us"
PERFORMER "The Nels Cline Singers"
INDEX 00 09:18:08
FILE "11 Watch Over Us.wav" WAVE
INDEX 01 00:00:00
оживил торрент
рип с собственного диска
Any questions -> support@pro-jazz.com. По всем вопросам пишите -> support@pro-jazz.com
10:22
172
Нет комментариев. Ваш будет первым!