Вы используете незарегистрированную версию компонента "Вкладки"!

Поиск

(Modern Creative, Soundtrack) Robert Burger - City Of Strangers - 2009, APE (tracks+.cue), lossless

(Modern Creative, Soundtrack) Robert Burger - City Of Strangers - 2009, APE (tracks+.cue), lossless
Треклист:
Robert Burger / City Of Strangers
Жанр: Modern Creative, Soundtrack
Страна-производитель диска: US
Год издания диска: 2009
Издатель (лейбл): Tzadik
Номер по каталогу: #7519
Аудиокодек: APE (*.ape)
Тип рипа: tracks+.cue
Битрейт аудио: lossless
Продолжительность: 51:18
Источник (релизер): Aeacos - Спасибо!
Наличие сканов в содержимом раздачи: да
Треклист:
1. Diminished Capacity - 1:47
2. Welcome Home, Cooper - 1:39
3. That's My Burglar - 1:03
4. Falling Spaniels - 2:09
5. Short Tux - 1:20
6. The Great Port - 2:41
7. WTC - 0:56
8. Bazaar - 1:55
9. Charlotte's Theme Part 1 - 2:18
10. Charlotte's Theme Part 2 - 2:12
11. It's Alright, Uncle Rollie; 2:02
12. The Accident - 0:39
13. I Do Say So - 0:26
14. Glad You're Here - 1:15
15. Mr. Bundles & The Flick - 2:09
16. Cooper & Charlotte; 1:27
17. The Cameraman's Revenge, for Accordion, Field Organ, Ukulele, Harmonica, VI - 1:14
18. Tale Around The Fire - 1:11
19. The Tunnel - 1:50
20. Brother Donny - 3:09
21. Wendell Kendall - 1:43
22. The Card - 1:43
23. In The Yard - 2:09
24. I'll Show You Dumb - 0:56
25. City Of Strangers - 1:23
26. The Kiss - 0:52
27. The Kiss - 1:07
28. Stan's Favor - 1:37
29. Dad Is Gone - 1:06
30. Thinuette - 2:32
31. Glad You're Here Reprise - 2:31
 
Лог создания рипа
Exact Audio Copy V1.0 beta 1 from 15. November 2010
EAC extraction logfile from 14. May 2011, 15:54
Unknown Artist / Unknown Title
Used drive : PBDS DVD+-RW DS-8W1P Adapter: 0 ID: 0
Read mode : Secure
Utilize accurate stream : Yes
Defeat audio cache : Yes
Make use of C2 pointers : No
Read offset correction : 594
Overread into Lead-In and Lead-Out : No
Fill up missing offset samples with silence : Yes
Delete leading and trailing silent blocks : No
Null samples used in CRC calculations : Yes
Used interface : Native Win32 interface for Win NT & 2000
Gap handling : Appended to previous track
Used output format : Internal WAV Routines
Sample format : 44.100 Hz; 16 Bit; Stereo
TOC of the extracted CD
Track | Start | Length | Start sector | End sector
---------------------------------------------------------
1 | 0:00.00 | 1:47.10 | 0 | 8034
2 | 1:47.10 | 1:39.12 | 8035 | 15471
3 | 3:26.22 | 1:03.52 | 15472 | 20248
4 | 4:29.74 | 2:09.11 | 20249 | 29934
5 | 6:39.10 | 1:20.43 | 29935 | 35977
6 | 7:59.53 | 2:41.43 | 35978 | 48095
7 | 10:41.21 | 0:56.57 | 48096 | 52352
8 | 11:38.03 | 1:55.42 | 52353 | 61019
9 | 13:33.45 | 2:18.23 | 61020 | 71392
10 | 15:51.68 | 2:12.19 | 71393 | 81311
11 | 18:04.12 | 2:02.43 | 81312 | 90504
12 | 20:06.55 | 0:39.70 | 90505 | 93499
13 | 20:46.50 | 0:26.18 | 93500 | 95467
14 | 21:12.68 | 1:15.44 | 95468 | 101136
15 | 22:28.37 | 2:09.69 | 101137 | 110880
16 | 24:38.31 | 1:27.49 | 110881 | 117454
17 | 26:06.05 | 1:14.27 | 117455 | 123031
18 | 27:20.32 | 1:11.39 | 123032 | 128395
19 | 28:31.71 | 1:50.00 | 128396 | 136645
20 | 30:21.71 | 3:09.27 | 136646 | 150847
21 | 33:31.23 | 1:43.43 | 150848 | 158615
22 | 35:14.66 | 1:43.27 | 158616 | 166367
23 | 36:58.18 | 2:09.39 | 166368 | 176081
24 | 39:07.57 | 0:56.70 | 176082 | 180351
25 | 40:04.52 | 1:23.32 | 180352 | 186608
26 | 41:28.09 | 0:52.59 | 186609 | 190567
27 | 42:20.68 | 1:07.31 | 190568 | 195623
28 | 43:28.24 | 1:37.32 | 195624 | 202930
29 | 45:05.56 | 1:06.40 | 202931 | 207920
30 | 46:12.21 | 2:32.58 | 207921 | 219378
31 | 48:45.04 | 2:31.04 | 219379 | 230707
Track 1
Filename H:\Upload\Robert Burger - City Of Strangers (2009)\01. Unknown Artist – Track01.wav
Pre-gap length 0:00:02.00
Peak level 96.6 %
Extraction speed 0.8 X
Track quality 100.0 %
Test CRC F1DA5EF8
Copy CRC F1DA5EF8
Accurately ripped (confidence 1) [9C9F2F17]
Copy OK
Track 2
Filename H:\Upload\Robert Burger - City Of Strangers (2009)\02. Unknown Artist – Track02.wav
Peak level 96.6 %
Extraction speed 0.8 X
Track quality 100.0 %
Test CRC 10FA54E3
Copy CRC 10FA54E3
Accurately ripped (confidence 1) [6004C2D0]
Copy OK
Track 3
Filename H:\Upload\Robert Burger - City Of Strangers (2009)\03. Unknown Artist – Track03.wav
Peak level 89.8 %
Extraction speed 0.7 X
Track quality 100.0 %
Test CRC 9EFF820B
Copy CRC 9EFF820B
Accurately ripped (confidence 1) [4D33D4B1]
Copy OK
Track 4
Filename H:\Upload\Robert Burger - City Of Strangers (2009)\04. Unknown Artist – Track04.wav
Peak level 96.6 %
Extraction speed 0.9 X
Track quality 99.9 %
Test CRC 36738BDE
Copy CRC 36738BDE
Accurately ripped (confidence 1) [58828DDA]
Copy OK
Track 5
Filename H:\Upload\Robert Burger - City Of Strangers (2009)\05. Unknown Artist – Track05.wav
Peak level 98.4 %
Extraction speed 0.9 X
Track quality 100.0 %
Test CRC 304000AD
Copy CRC 304000AD
Accurately ripped (confidence 1) [70895286]
Copy OK
Track 6
Filename H:\Upload\Robert Burger - City Of Strangers (2009)\06. Unknown Artist – Track06.wav
Peak level 89.0 %
Extraction speed 1.1 X
Track quality 100.0 %
Test CRC 5F09E289
Copy CRC 5F09E289
Accurately ripped (confidence 1) [3B38A6BE]
Copy OK
Track 7
Filename H:\Upload\Robert Burger - City Of Strangers (2009)\07. Unknown Artist – Track07.wav
Peak level 72.0 %
Extraction speed 0.7 X
Track quality 99.8 %
Test CRC BA41AD09
Copy CRC BA41AD09
Accurately ripped (confidence 1) [02DBD23E]
Copy OK
Track 8
Filename H:\Upload\Robert Burger - City Of Strangers (2009)\08. Unknown Artist – Track08.wav
Peak level 82.2 %
Extraction speed 1.0 X
Track quality 99.9 %
Test CRC BD554B66
Copy CRC BD554B66
Accurately ripped (confidence 1) [B0E892CB]
Copy OK
Track 9
Filename H:\Upload\Robert Burger - City Of Strangers (2009)\09. Unknown Artist – Track09.wav
Peak level 96.6 %
Extraction speed 1.2 X
Track quality 100.0 %
Test CRC 7633C2A6
Copy CRC 7633C2A6
Accurately ripped (confidence 1) [D61E249D]
Copy OK
Track 10
Filename H:\Upload\Robert Burger - City Of Strangers (2009)\10. Unknown Artist – Track10.wav
Peak level 76.5 %
Extraction speed 1.2 X
Track quality 100.0 %
Test CRC 1237E62E
Copy CRC 1237E62E
Accurately ripped (confidence 1) [2BF59503]
Copy OK
Track 11
Filename H:\Upload\Robert Burger - City Of Strangers (2009)\11. Unknown Artist – Track11.wav
Peak level 44.3 %
Extraction speed 1.2 X
Track quality 100.0 %
Test CRC 217296CB
Copy CRC 217296CB
Accurately ripped (confidence 1) [BD4887B6]
Copy OK
Track 12
Filename H:\Upload\Robert Burger - City Of Strangers (2009)\12. Unknown Artist – Track12.wav
Peak level 27.9 %
Extraction speed 0.8 X
Track quality 100.0 %
Test CRC 98A8670B
Copy CRC 98A8670B
Accurately ripped (confidence 1) [109A1590]
Copy OK
Track 13
Filename H:\Upload\Robert Burger - City Of Strangers (2009)\13. Unknown Artist – Track13.wav
Peak level 93.1 %
Extraction speed 0.5 X
Track quality 99.5 %
Test CRC 66AE9C88
Copy CRC 66AE9C88
Accurately ripped (confidence 1) [87794E57]
Copy OK
Track 14
Filename H:\Upload\Robert Burger - City Of Strangers (2009)\14. Unknown Artist – Track14.wav
Pre-gap length 0:00:01.23
Peak level 94.7 %
Extraction speed 1.1 X
Track quality 100.0 %
Test CRC 9E7191C3
Copy CRC 9E7191C3
Accurately ripped (confidence 1) [1C832F67]
Copy OK
Track 15
Filename H:\Upload\Robert Burger - City Of Strangers (2009)\15. Unknown Artist – Track15.wav
Pre-gap length 0:00:01.43
Peak level 96.6 %
Extraction speed 1.3 X
Track quality 100.0 %
Test CRC F6CD996F
Copy CRC F6CD996F
Accurately ripped (confidence 1) [CCBEFFA7]
Copy OK
Track 16
Filename H:\Upload\Robert Burger - City Of Strangers (2009)\16. Unknown Artist – Track16.wav
Peak level 39.3 %
Extraction speed 1.1 X
Track quality 99.8 %
Test CRC 49C1BC49
Copy CRC 49C1BC49
Accurately ripped (confidence 1) [1160EB79]
Copy OK
Track 17
Filename H:\Upload\Robert Burger - City Of Strangers (2009)\17. Unknown Artist – Track17.wav
Peak level 96.6 %
Extraction speed 1.0 X
Track quality 99.8 %
Test CRC C1C9DF9B
Copy CRC C1C9DF9B
Accurately ripped (confidence 1) [95442257]
Copy OK
Track 18
Filename H:\Upload\Robert Burger - City Of Strangers (2009)\18. Unknown Artist – Track18.wav
Peak level 68.8 %
Extraction speed 1.1 X
Track quality 100.0 %
Test CRC DB877184
Copy CRC DB877184
Accurately ripped (confidence 1) [617B519A]
Copy OK
Track 19
Filename H:\Upload\Robert Burger - City Of Strangers (2009)\19. Unknown Artist – Track19.wav
Peak level 44.2 %
Extraction speed 1.3 X
Track quality 100.0 %
Test CRC 722D5B92
Copy CRC 722D5B92
Accurately ripped (confidence 1) [9A421D4B]
Copy OK
Track 20
Filename H:\Upload\Robert Burger - City Of Strangers (2009)\20. Unknown Artist – Track20.wav
Peak level 96.6 %
Extraction speed 1.5 X
Track quality 100.0 %
Test CRC 7BAA7009
Copy CRC 7BAA7009
Accurately ripped (confidence 1) [53456C6D]
Copy OK
Track 21
Filename H:\Upload\Robert Burger - City Of Strangers (2009)\21. Unknown Artist – Track21.wav
Peak level 96.6 %
Extraction speed 1.4 X
Track quality 100.0 %
Test CRC 587417EE
Copy CRC 587417EE
Accurately ripped (confidence 1) [60182EFC]
Copy OK
Track 22
Filename H:\Upload\Robert Burger - City Of Strangers (2009)\22. Unknown Artist – Track22.wav
Pre-gap length 0:00:02.36
Peak level 28.0 %
Extraction speed 1.4 X
Track quality 100.0 %
Test CRC DDDF0054
Copy CRC DDDF0054
Accurately ripped (confidence 1) [2EA0A435]
Copy OK
Track 23
Filename H:\Upload\Robert Burger - City Of Strangers (2009)\23. Unknown Artist – Track23.wav
Pre-gap length 0:00:01.06
Peak level 86.3 %
Extraction speed 1.3 X
Track quality 99.9 %
Test CRC E574E7E0
Copy CRC E574E7E0
Accurately ripped (confidence 1) [89C6ECC6]
Copy OK
Track 24
Filename H:\Upload\Robert Burger - City Of Strangers (2009)\24. Unknown Artist – Track24.wav
Peak level 44.9 %
Extraction speed 1.2 X
Track quality 100.0 %
Test CRC BC1AC699
Copy CRC BC1AC699
Accurately ripped (confidence 1) [987DBCFB]
Copy OK
Track 25
Filename H:\Upload\Robert Burger - City Of Strangers (2009)\25. Unknown Artist – Track25.wav
Peak level 56.7 %
Extraction speed 1.4 X
Track quality 100.0 %
Test CRC 7D256367
Copy CRC 7D256367
Accurately ripped (confidence 1) [B8A33647]
Copy OK
Track 26
Filename H:\Upload\Robert Burger - City Of Strangers (2009)\26. Unknown Artist – Track26.wav
Peak level 55.8 %
Extraction speed 0.9 X
Track quality 99.7 %
Test CRC F0A17849
Copy CRC F0A17849
Accurately ripped (confidence 1) [AC97665E]
Copy OK
Track 27
Filename H:\Upload\Robert Burger - City Of Strangers (2009)\27. Unknown Artist – Track27.wav
Peak level 93.0 %
Extraction speed 1.0 X
Track quality 99.8 %
Test CRC C2356F1D
Copy CRC C2356F1D
Accurately ripped (confidence 1) [672BE9C5]
Copy OK
Track 28
Filename H:\Upload\Robert Burger - City Of Strangers (2009)\28. Unknown Artist – Track28.wav
Peak level 91.3 %
Extraction speed 1.5 X
Track quality 100.0 %
Test CRC 725AD5E0
Copy CRC 725AD5E0
Accurately ripped (confidence 1) [1D45B314]
Copy OK
Track 29
Filename H:\Upload\Robert Burger - City Of Strangers (2009)\29. Unknown Artist – Track29.wav
Peak level 34.1 %
Extraction speed 1.4 X
Track quality 100.0 %
Test CRC 69CF5F54
Copy CRC 69CF5F54
Accurately ripped (confidence 1) [0A6CA20A]
Copy OK
Track 30
Filename H:\Upload\Robert Burger - City Of Strangers (2009)\30. Unknown Artist – Track30.wav
Peak level 53.5 %
Extraction speed 1.5 X
Track quality 99.9 %
Test CRC 3F5F6AE3
Copy CRC 3F5F6AE3
Accurately ripped (confidence 1) [57E880F3]
Copy OK
Track 31
Filename H:\Upload\Robert Burger - City Of Strangers (2009)\31. Unknown Artist – Track31.wav
Pre-gap length 0:00:02.13
Peak level 94.3 %
Extraction speed 1.7 X
Track quality 100.0 %
Test CRC AE8C8DC2
Copy CRC AE8C8DC2
Accurately ripped (confidence 1) [1BDBE1F3]
Copy OK
All tracks accurately ripped
No errors occurred
End of status report
 
Содержание индексной карты (EDIT.CUE)
REM DISCID 7F0C041F
REM COMMENT "ExactAudioCopy v1.0b1"
PERFORMER "Unknown Artist"
TITLE "Unknown Title"
FILE "01. Robert Burger – Diminished Capacity.wav" WAVE
TRACK 01 AUDIO
TITLE "Diminished Capacity"
PERFORMER "Robert Burger"
INDEX 01 00:00:00
FILE "02. Robert Burger – Welcome Home, Cooper.wav" WAVE
TRACK 02 AUDIO
TITLE "Welcome Home, Cooper"
PERFORMER "Robert Burger"
INDEX 01 00:00:00
FILE "03. Robert Burger – That's My Burglar.wav" WAVE
TRACK 03 AUDIO
TITLE "That's My Burglar"
PERFORMER "Robert Burger"
INDEX 01 00:00:00
FILE "04. Robert Burger – Falling Spaniels.wav" WAVE
TRACK 04 AUDIO
TITLE "Falling Spaniels"
PERFORMER "Robert Burger"
INDEX 01 00:00:00
FILE "05. Robert Burger – Short Tux.wav" WAVE
TRACK 05 AUDIO
TITLE "Short Tux"
PERFORMER "Robert Burger"
INDEX 01 00:00:00
FILE "06. Robert Burger – The Great Port.wav" WAVE
TRACK 06 AUDIO
TITLE "The Great Port"
PERFORMER "Robert Burger"
INDEX 01 00:00:00
FILE "07. Robert Burger – WTC.wav" WAVE
TRACK 07 AUDIO
TITLE "WTC"
PERFORMER "Robert Burger"
INDEX 01 00:00:00
FILE "08. Robert Burger – Bazaar.wav" WAVE
TRACK 08 AUDIO
TITLE "Bazaar"
PERFORMER "Robert Burger"
INDEX 01 00:00:00
FILE "09. Robert Burger – Charlotte's Theme Part 1.wav" WAVE
TRACK 09 AUDIO
TITLE "Charlotte's Theme Part 1"
PERFORMER "Robert Burger"
INDEX 01 00:00:00
FILE "10. Robert Burger – Charlotte's Theme Part 2.wav" WAVE
TRACK 10 AUDIO
TITLE "Charlotte's Theme Part 2"
PERFORMER "Robert Burger"
INDEX 01 00:00:00
FILE "11. Robert Burger – It's Alright, Uncle Rollie.wav" WAVE
TRACK 11 AUDIO
TITLE "It's Alright, Uncle Rollie"
PERFORMER "Robert Burger"
INDEX 01 00:00:00
FILE "12. Robert Burger – The Accident.wav" WAVE
TRACK 12 AUDIO
TITLE "The Accident"
PERFORMER "Robert Burger"
INDEX 01 00:00:00
FILE "13. Robert Burger – I Do Say So.wav" WAVE
TRACK 13 AUDIO
TITLE "I Do Say So"
PERFORMER "Robert Burger"
INDEX 01 00:00:00
TRACK 14 AUDIO
TITLE "Glad You're Here"
PERFORMER "Robert Burger"
INDEX 00 00:24:70
FILE "14. Robert Burger – Glad You're Here.wav" WAVE
INDEX 01 00:00:00
TRACK 15 AUDIO
TITLE "Mr. Bundles & The Flick"
PERFORMER "Robert Burger"
INDEX 00 01:14:01
FILE "15. Robert Burger – Mr. Bundles & The Flick.wav" WAVE
INDEX 01 00:00:00
FILE "16. Robert Burger – Cooper & Charlotte.wav" WAVE
TRACK 16 AUDIO
TITLE "Cooper & Charlotte"
PERFORMER "Robert Burger"
INDEX 01 00:00:00
FILE "17. Robert Burger – The Cameraman's Revenge.wav" WAVE
TRACK 17 AUDIO
TITLE "The Cameraman's Revenge"
PERFORMER "Robert Burger"
INDEX 01 00:00:00
FILE "18. Robert Burger – Tale Around The Fire.wav" WAVE
TRACK 18 AUDIO
TITLE "Tale Around The Fire"
PERFORMER "Robert Burger"
INDEX 01 00:00:00
FILE "19. Robert Burger – The Tunnel.wav" WAVE
TRACK 19 AUDIO
TITLE "The Tunnel"
PERFORMER "Robert Burger"
INDEX 01 00:00:00
FILE "20. Robert Burger – Brother Donny.wav" WAVE
TRACK 20 AUDIO
TITLE "Brother Donny"
PERFORMER "Robert Burger"
INDEX 01 00:00:00
FILE "21. Robert Burger – Wendell Kendall.wav" WAVE
TRACK 21 AUDIO
TITLE "Wendell Kendall"
PERFORMER "Robert Burger"
INDEX 01 00:00:00
TRACK 22 AUDIO
TITLE "The Card"
PERFORMER "Robert Burger"
INDEX 00 01:41:07
FILE "22. Robert Burger – The Card.wav" WAVE
INDEX 01 00:00:00
TRACK 23 AUDIO
TITLE "In The Yard"
PERFORMER "Robert Burger"
INDEX 00 01:42:21
FILE "23. Robert Burger – In The Yard.wav" WAVE
INDEX 01 00:00:00
FILE "24. Robert Burger – I'll Show You Dumb.wav" WAVE
TRACK 24 AUDIO
TITLE "I'll Show You Dumb"
PERFORMER "Robert Burger"
INDEX 01 00:00:00
FILE "25. Robert Burger – City Of Strangers.wav" WAVE
TRACK 25 AUDIO
TITLE "City Of Strangers"
PERFORMER "Robert Burger"
INDEX 01 00:00:00
FILE "26. Robert Burger – Timescapes.wav" WAVE
TRACK 26 AUDIO
TITLE "Timescapes"
PERFORMER "Robert Burger"
INDEX 01 00:00:00
FILE "27. Robert Burger – The Kiss.wav" WAVE
TRACK 27 AUDIO
TITLE "The Kiss"
PERFORMER "Robert Burger"
INDEX 01 00:00:00
FILE "28. Robert Burger – Stan's Favor.wav" WAVE
TRACK 28 AUDIO
TITLE "Stan's Favor"
PERFORMER "Robert Burger"
INDEX 01 00:00:00
FILE "29. Robert Burger – Dad Is Gone.wav" WAVE
TRACK 29 AUDIO
TITLE "Dad Is Gone"
PERFORMER "Robert Burger"
INDEX 01 00:00:00
FILE "30. Robert Burger – Thinuette.wav" WAVE
TRACK 30 AUDIO
TITLE "Thinuette"
PERFORMER "Robert Burger"
INDEX 01 00:00:00
TRACK 31 AUDIO
TITLE "Glad You're Here Reprise"
PERFORMER "Robert Burger"
INDEX 00 02:30:45
FILE "31. Robert Burger – Glad You're Here Reprise.wav" WAVE
INDEX 01 00:00:00
 
Об альбоме (сборнике)
Robert Burger has worked with Laurie Anderson, Rufus Wainwright, Lucinda Williams, Iron & Wine, and was a founding member of chamber music collective Tin Hat Trio. His first Tzadik CD Lost Photograph was released in 2002 to great acclaim. Performing on a multitude of instruments, and complemented by some of the greatest names in new music, Robert presents City of Strangers, a deep and eclectic collection of film cues that reveals, once again, the boundless and potent gifts of an important contributor.
 
Состав
Robert Burger: Piano, Accordion, Keyboards, Guitars, Lap Steel, Banjo, Ukelele, Harmonica, Marimba, Vibraphone, Percussion, Jew's Harp, Zither, Field Organ, Treatments
Eyvind Kang: Viola
Carla Kihlstedt: Violin
Marc Ribot: Electric Guitar Solo
Kenny Wollesen: Bass Drum, Bug, Waterphone
Maxim Moston: Violin
Mark Orton: Guitar
Any questions -> support@pro-jazz.com. По всем вопросам пишите -> support@pro-jazz.com
22:59
169
Нет комментариев. Ваш будет первым!