Вы используете незарегистрированную версию компонента "Вкладки"!

Поиск

(Modern Creative) Ronnie Lynn Patterson & Didier Lasserre - The Gernika Suite - 2006, FLAC (tracks+.cue), lossless

(Modern Creative) Ronnie Lynn Patterson & Didier Lasserre - The Gernika Suite - 2006, FLAC (tracks+.cue), lossless
Треклист:
Ronnie Lynn Patterson & Didier Lasserre / The Gernika Suite
Жанр: Modern Creative
Страна-производитель диска: Франция
Год издания: 2006
Издатель (лейбл): Amor Fati
Номер по каталогу: Fatum 008
Страна: Франция
Аудиокодек: FLAC (*.flac)
Тип рипа: tracks+.cue
Битрейт аудио: lossless
Продолжительность: 42:41
Источник (релизер): вот.сиди (Ludovico)
Наличие сканов в содержимом раздачи: нет
Треклист:
1 G 1:15
2 E 3:16
3 R 4:41
4 N 7:54
5 I 9:02
6 K 12:07
7 A 4:23
Enregistré ''Live'' avec et sans public au Musée d'Aquitaine à Bordeaux
 
Лог создания рипа
Exact Audio Copy V1.0 beta 3 from 29. August 2011
EAC extraction logfile from 26. January 2012, 21:01
Ronnie Lynn Patterson And Didier Lasserre / The Gernika Suite
Used drive : TSSTcorpCDDVDW SE-S084F Adapter: 4 ID: 0
Read mode : Secure
Utilize accurate stream : Yes
Defeat audio cache : Yes
Make use of C2 pointers : No
Read offset correction : 6
Overread into Lead-In and Lead-Out : No
Fill up missing offset samples with silence : Yes
Delete leading and trailing silent blocks : No
Null samples used in CRC calculations : Yes
Used interface : Installed external ASPI interface
Gap handling : Appended to previous track
Used output format : User Defined Encoder
Selected bitrate : 1024 kBit/s
Quality : High
Add ID3 tag : Yes
Command line compressor : C:\Program Files\Exact Audio Copy\FLAC\FLAC.EXE
Additional command line options : -8 -V -T "ARTIST=%artist%" -T "TITLE=%title%" -T "ALBUM=%albumtitle%" -T "DATE=%year%" -T "TRACKNUMBER=%tracknr%" -T "GENRE=%genre%" -T "PERFORMER=%albuminterpret%" -T "COMPOSER=%composer%" %haslyrics%--tag-from-file=LYRICS="%lyricsfile%"%haslyrics% -T "ALBUMARTIST=%albumartist%" -T "DISCNUMBER=%cdnumber%" -T "TOTALDISCS=%totalcds%" -T "TOTALTRACKS=%numtracks%" -T "COMMENT=%comment%" %source% -o %dest%
TOC of the extracted CD
Track | Start | Length | Start sector | End sector
---------------------------------------------------------
1 | 0:00.00 | 1:15.17 | 0 | 5641
2 | 1:15.17 | 3:16.68 | 5642 | 20409
3 | 4:32.10 | 4:41.33 | 20410 | 41517
4 | 9:13.43 | 7:54.01 | 41518 | 77068
5 | 17:07.44 | 9:02.48 | 77069 | 117766
6 | 26:10.17 | 12:07.14 | 117767 | 172305
7 | 38:17.31 | 4:23.53 | 172306 | 192083
Track 1
Filename Z:\Musique Flac\médiathèque\Ronnie Lynn Patterson And Didier Lasserre - The Gernika Suite\1 - G.wav
Pre-gap length 0:00:02.00
Peak level 41.5 %
Extraction speed 1.8 X
Track quality 100.0 %
Test CRC 3FCF0212
Copy CRC 3FCF0212
Track not present in AccurateRip database
Copy OK
Track 2
Filename Z:\Musique Flac\médiathèque\Ronnie Lynn Patterson And Didier Lasserre - The Gernika Suite\2 - E.wav
Peak level 92.7 %
Extraction speed 2.5 X
Track quality 100.0 %
Test CRC CDFAE89E
Copy CRC CDFAE89E
Track not present in AccurateRip database
Copy OK
Track 3
Filename Z:\Musique Flac\médiathèque\Ronnie Lynn Patterson And Didier Lasserre - The Gernika Suite\3 - R.wav
Pre-gap length 0:00:08.00
Peak level 99.9 %
Extraction speed 2.9 X
Track quality 100.0 %
Test CRC 230BAA7B
Copy CRC 230BAA7B
Track not present in AccurateRip database
Copy OK
Track 4
Filename Z:\Musique Flac\médiathèque\Ronnie Lynn Patterson And Didier Lasserre - The Gernika Suite\4 - N.wav
Pre-gap length 0:00:08.00
Peak level 36.2 %
Extraction speed 3.4 X
Track quality 100.0 %
Test CRC D5A9A29D
Copy CRC D5A9A29D
Track not present in AccurateRip database
Copy OK
Track 5
Filename Z:\Musique Flac\médiathèque\Ronnie Lynn Patterson And Didier Lasserre - The Gernika Suite\5 - I.wav
Pre-gap length 0:00:08.00
Peak level 95.8 %
Extraction speed 3.9 X
Track quality 100.0 %
Test CRC E340D7EF
Copy CRC E340D7EF
Track not present in AccurateRip database
Copy OK
Track 6
Filename Z:\Musique Flac\médiathèque\Ronnie Lynn Patterson And Didier Lasserre - The Gernika Suite\6 - K.wav
Pre-gap length 0:00:02.00
Peak level 98.5 %
Extraction speed 4.5 X
Track quality 100.0 %
Test CRC E9911A2B
Copy CRC E9911A2B
Track not present in AccurateRip database
Copy OK
Track 7
Filename Z:\Musique Flac\médiathèque\Ronnie Lynn Patterson And Didier Lasserre - The Gernika Suite\7 - A.wav
Pre-gap length 0:00:08.00
Peak level 66.1 %
Extraction speed 4.5 X
Track quality 100.0 %
Test CRC 0FD124A5
Copy CRC 0FD124A5
Track not present in AccurateRip database
Copy OK
None of the tracks are present in the AccurateRip database
No errors occurred
End of status report
==== Log checksum 4B06CE2FCCD7D257448961C1481357E75B328A9CF13295B9C63A89482C5D3858 ====
 
Содержание индексной карты (.CUE)
REM GENRE Jazz
REM DATE 2006
REM DISCID 5D0A0107
REM COMMENT "ExactAudioCopy v1.0b3"
PERFORMER "Ronnie Lynn Patterson And Didier Lasserre "
TITLE "The Gernika Suite"
FILE "1 - G.wav" WAVE
TRACK 01 AUDIO
TITLE "G"
PERFORMER "Ronnie Lynn Patterson And Didier Lasserre "
INDEX 01 00:00:00
FILE "2 - E.wav" WAVE
TRACK 02 AUDIO
TITLE "E"
PERFORMER "Ronnie Lynn Patterson And Didier Lasserre "
INDEX 01 00:00:00
TRACK 03 AUDIO
TITLE "R"
PERFORMER "Ronnie Lynn Patterson And Didier Lasserre "
INDEX 00 03:08:68
FILE "3 - R.wav" WAVE
INDEX 01 00:00:00
TRACK 04 AUDIO
TITLE "N"
PERFORMER "Ronnie Lynn Patterson And Didier Lasserre "
INDEX 00 04:33:33
FILE "4 - N.wav" WAVE
INDEX 01 00:00:00
TRACK 05 AUDIO
TITLE "I"
PERFORMER "Ronnie Lynn Patterson And Didier Lasserre "
INDEX 00 07:46:01
FILE "5 - I.wav" WAVE
INDEX 01 00:00:00
TRACK 06 AUDIO
TITLE "K"
PERFORMER "Ronnie Lynn Patterson And Didier Lasserre "
INDEX 00 09:00:48
FILE "6 - K.wav" WAVE
INDEX 01 00:00:00
TRACK 07 AUDIO
TITLE "A"
PERFORMER "Ronnie Lynn Patterson And Didier Lasserre "
INDEX 00 11:59:14
FILE "7 - A.wav" WAVE
INDEX 01 00:00:00
 
Лог проверки качества
AUDIOCHECKER v2.0 beta (build 457) - by Dester - opdester@freemail.hu
~~~~~~~~~~~~~~~~~~~~~~~~~~~~~~~~~~
-=== DO NOT EDIT THIS FILE! ===-
Path: ...\Ronnie Lynn Patterson And Didier Lasserre - The Gernika Suite
1 -=- 1 - G.flac -=- CDDA (100%)
2 -=- 2 - E.flac -=- MPEG (93%)
3 -=- 3 - R.flac -=- CDDA (100%)
4 -=- 4 - N.flac -=- CDDA (100%)
5 -=- 5 - I.flac -=- CDDA (100%)
6 -=- 6 - K.flac -=- CDDA (99%)
7 -=- 7 - A.flac -=- CDDA (100%)
Summary 86,57% CDDA
209033476
 
Скриншот спектра частот
 
Состав
ronnie lynn patterson: piano
didier lasserre: batterie
Any questions -> support@pro-jazz.com. По всем вопросам пишите -> support@pro-jazz.com
23:23
150
Нет комментариев. Ваш будет первым!