Поиск

(modern creative, Radical Jewish Cutlure, Tzadik) John Zorn - Book of Angels Volume 10 : Lucifer - Bar Kokhba Sextet - 2008, FLAC (image+.cue), lossless

(modern creative, Radical Jewish Cutlure, Tzadik) John Zorn - Book of Angels Volume 10 : Lucifer - Bar Kokhba Sextet - 2008, FLAC (image+.cue), lossless
Треклист:
John Zorn - Book of Angels Volume 10 : Lucifer - Bar Kokhba Sextet
Жанр: modern creative, Radical Jewish Cutlure, Tzadik
Год выпуска диска: 2008
Производитель диска: USA (Tzadik)
Аудио кодек: FLAC
Тип рипа: image+.cue
Битрейт аудио: lossless
Продолжительность: 54.46
Трэклист:
1. Sother
2. Dalquiel
3. Zazel
4. Gediel
5. Rahal
6. Zechriel
7. Azbugah
8. Mehalalel
9. Quelamia
10. Abdiel
Доп. информация: Personnel:
Cyro Baptista: Percussion
Joey Baron: Drums
Greg Cohen: Bass
Mark Feldman: Violin
Erik Friedlander: Cello
Marc Ribot: Guitar
 
eac log
Exact Audio Copy V0.99 prebeta 4 from 23. January 2008
Отчёт EAC об извлечении, выполненном 2. ноября 2008, 3:25
John Zorn / Lucifer: Book of Angels Volume 10
Дисковод: Optiarc DVD RW AD-7170A Adapter: 0 ID: 1
Режим чтения : Достоверность
Использование точного потока : Да
Отключение кэша аудио : Да
Использование указателей C2 : Нет
Коррекция смещения при чтении : 48
Способность читать области Lead-in и Lead-out : Нет
Заполнение пропущенных сэмплов тишиной : Да
Удаление блоков с тишиной в начале и конце : Нет
При вычислениях CRC использовались нулевые сэмплы : Да
Интерфейс : Встроенный Win32-интерфейс для Win NT/2000
Выходной формат : Пользовательский кодировщик
Выбранный битрейт : 768 kBit/s
Качество : Высокий
Добавление ID3-тэга : Нет
Утилита сжатия : D:\Program Files\Exact Audio Copy\FLAC\FLAC.EXE
Дополнительные параметры : -6 -V -T "ARTIST=%a" -T "TITLE=%t" -T "ALBUM=%g" -T "DATE=%y" -T "TRACKNUMBER=%n" -T "GENRE=%m" -T "COMMENT=%e" %s -o %d
TOC извлечённого CD
Трек | Старт | Длительность | Начальный сектор | Конечный сектор
---------------------------------------------------------------------
1 | 0:00.00 | 5:58.62 | 0 | 26911
2 | 5:58.62 | 6:07.66 | 26912 | 54502
3 | 12:06.53 | 3:22.27 | 54503 | 69679
4 | 15:29.05 | 6:12.43 | 69680 | 97622
5 | 21:41.48 | 3:49.26 | 97623 | 114823
6 | 25:30.74 | 7:54.44 | 114824 | 150417
7 | 33:25.43 | 3:02.09 | 150418 | 164076
8 | 36:27.52 | 9:53.74 | 164077 | 208625
9 | 46:21.51 | 4:59.24 | 208626 | 231074
10 | 51:21.00 | 3:24.69 | 231075 | 246443
Характеристики диапазона извлечения и сообщения об ошибках
Выбранный диапазон
Имя файла D:\EAC\John Zorn - Lucifer Book of Angels Volume 10.wav
Пиковый уровень 96.2 %
Качество диапазона 99.9 %
CRC копии B8C73202
Копирование... OK
Ошибок не произошло
AccurateRip: сводка
Трек 1 нет в базе данных
Трек 2 точное извлечение (доверие 2) [B0546946]
Трек 3 нет в базе данных
Трек 4 нет в базе данных
Трек 5 нет в базе данных
Трек 6 нет в базе данных
Трек 7 нет в базе данных
Трек 8 нет в базе данных
Трек 9 нет в базе данных
Трек 10 нет в базе данных
1 трек(и) скопированы точно
9 трек(и) не содержатся в базе AccurateRip
Некоторые треки не прошли проверку на точность
Конец отчёта
04:20
462
Нет комментариев. Ваш будет первым!