Вы используете незарегистрированную версию компонента "Вкладки"!

Поиск

(Modern Creative / Post-Bop) Scott Amendola Trio - Lift - 2010, FLAC (image+.cue) lossless

(Modern Creative / Post-Bop) Scott Amendola Trio - Lift - 2010, FLAC (image+.cue) lossless
Треклист:
Scott Amendola Trio - Lift

Жанр: Modern Creative / Post-Bop
Страна-производитель диска: USA
Год издания диска: 2010
Издатель (лейбл): Sazi Records 001
Аудио кодек: FLAC (*.flac)
Тип рипа: image+.cue
Битрейт аудио: lossless
Продолжительность: 46:34
Источник (релизер): собственный рип
Наличие сканов в содержимом раздачи: нет
Jeff Parker: guitar
John Shifflett: bass
Scott Amendola: drums, percussion, electronics
1. Tudo De Bom
2. Cascade
3. Blues for Istanbul
4. Death by Flower
5. Lift
6. Lima Bean
7. The Knife
8. Lullaby for Sascha
 
Лог создания рипа
Exact Audio Copy V0.99 prebeta 4 from 23. January 2008
EAC extraction logfile from 26. October 2010, 21:12
Scott Amendola / Lift
Used drive : TSSTcorpCD/DVDW SH-S182M Adapter: 2 ID: 1
Read mode : Secure
Utilize accurate stream : Yes
Defeat audio cache : Yes
Make use of C2 pointers : No
Read offset correction : 6
Overread into Lead-In and Lead-Out : No
Fill up missing offset samples with silence : Yes
Delete leading and trailing silent blocks : No
Null samples used in CRC calculations : Yes
Used interface : Installed external ASPI interface
Used output format : User Defined Encoder
Selected bitrate : 1024 kBit/s
Quality : High
Add ID3 tag : No
Command line compressor : C:\Program Files\Exact Audio Copy\Flac\flac.exe
Additional command line options : -6 -V -T "ARTIST=%a" -T "TITLE=%t" -T "ALBUM=%g" -T "DATE=%y" -T "TRACKNUMBER=%n" -T "GENRE=%m" -T "COMMENT=EAC FLAC -6" %s
TOC of the extracted CD
Track | Start | Length | Start sector | End sector
---------------------------------------------------------
1 | 0:00.00 | 6:29.48 | 0 | 29222
2 | 6:29.48 | 7:44.51 | 29223 | 64073
3 | 14:14.24 | 7:25.61 | 64074 | 97509
4 | 21:40.10 | 3:39.60 | 97510 | 113994
5 | 25:19.70 | 5:39.27 | 113995 | 139446
6 | 30:59.22 | 6:54.24 | 139447 | 170520
7 | 37:53.46 | 4:12.57 | 170521 | 189477
8 | 42:06.28 | 4:27.74 | 189478 | 209576
Range status and errors
Selected range
Filename C:\Users\Igor\Music\eac\Scott Amendola - Lift.wav
Peak level 96.6 %
Range quality 100.0 %
Test CRC 424C20B8
Copy CRC 424C20B8
Copy OK
No errors occurred
AccurateRip summary
Track 1 not present in database
Track 2 not present in database
Track 3 not present in database
Track 4 not present in database
Track 5 not present in database
Track 6 not present in database
Track 7 not present in database
Track 8 not present in database
None of the tracks are present in the AccurateRip database
End of status report
Any questions -> support@pro-jazz.com. По всем вопросам пишите -> support@pro-jazz.com
04:51
154
Нет комментариев. Ваш будет первым!