Вы используете незарегистрированную версию компонента "Вкладки"!

Поиск

(Modern Creative / Post-Bop) Mario Pavone / Michael Musillami - Motion Poetry - 2000, FLAC (image+.cue) lossless

(Modern Creative / Post-Bop) Mario Pavone / Michael Musillami - Motion Poetry - 2000, FLAC (image+.cue) lossless
Треклист:
Mario Pavone / Michael Musillami - Motion Poetry

Жанр: Modern Creative / Post-Bop
Страна-производитель диска: USA
Год издания диска: 2000
Издатель (лейбл): Playscape Recording 538
Аудио кодек: FLAC (*.flac)
Тип рипа: image+.cue
Битрейт аудио: lossless
Продолжительность: 48:23
Источник (релизер): собственный рип
Наличие сканов в содержимом раздачи: нет
Michael Musillami: guitar
Mario Pavone: bass
Peter Madsen: piano
Michael Sarin: drums
1. Foody
2. 3m Blues
3. Poet o Central Park
4. Emmett Spencer
5. New Socks
6. Lament in Passing
7. Song for M
8. Achives
 
Лог создания рипа
Exact Audio Copy V0.99 prebeta 5 from 4. May 2009
EAC extraction logfile from 28. November 2009, 23:26
Mario Pavone / Michael Musillami / Motion Poetry
Used drive : TSSTcorpCD/DVDW SH-S182M Adapter: 2 ID: 0
Read mode : Secure
Utilize accurate stream : Yes
Defeat audio cache : Yes
Make use of C2 pointers : No
Read offset correction : 6
Overread into Lead-In and Lead-Out : No
Fill up missing offset samples with silence : Yes
Delete leading and trailing silent blocks : No
Null samples used in CRC calculations : Yes
Used interface : Installed external ASPI interface
Used output format : User Defined Encoder
Selected bitrate : 1024 kBit/s
Quality : High
Add ID3 tag : No
Command line compressor : C:\Program Files\FLAC\flac.exe
Additional command line options : -6 -V -T "ARTIST=%a" -T "TITLE=%t" -T "ALBUM=%g" -T "DATE=%y" -T "TRACKNUMBER=%n" -T "GENRE=%m" -T "COMMENT=EAC FLAC -6" %s
TOC of the extracted CD
Track | Start | Length | Start sector | End sector
---------------------------------------------------------
1 | 0:00.00 | 1:56.67 | 0 | 8766
2 | 1:56.67 | 5:43.17 | 8767 | 34508
3 | 7:40.09 | 5:01.52 | 34509 | 57135
4 | 12:41.61 | 7:35.46 | 57136 | 91306
5 | 20:17.32 | 5:34.36 | 91307 | 116392
6 | 25:51.68 | 8:26.18 | 116393 | 154360
7 | 34:18.11 | 8:34.73 | 154361 | 192983
8 | 42:53.09 | 5:30.03 | 192984 | 217736
Range status and errors
Selected range
Filename C:\Mario Pavone & Michael Musillami - Motion Poetry.wav
Peak level 100.0 %
Range quality 100.0 %
Test CRC 9E09CFF0
Copy CRC 9E09CFF0
Copy OK
No errors occurred
AccurateRip summary
Track 1 not present in database
Track 2 not present in database
Track 3 not present in database
Track 4 not present in database
Track 5 not present in database
Track 6 not present in database
Track 7 not present in database
Track 8 not present in database
None of the tracks are present in the AccurateRip database
End of status report
Any questions -> support@pro-jazz.com. По всем вопросам пишите -> support@pro-jazz.com
05:26
132
Нет комментариев. Ваш будет первым!