Вы используете незарегистрированную версию компонента "Вкладки"!

Поиск

(Modern Creative\ Post-Bop) Bill Frisell - Before We Were Born - 1988, APE (image+.cue), lossless

Треклист:
Bill Frisell - Before We Were Born- 1988, APE (image+.cue), lossless
Жанр: Modern Creative\ Post-Bop
Год выпуска диска: 1988
Производитель диска: Россия (лицензия)
Аудио кодек: APE
Тип рипа: image+.cue
Битрейт аудио: lossless
Состав:(по моему великолепный)
*Bill Frisell: electric and acoustic guitars, banjo
* Hank Roberts: cello
* Kermit Driscoll: bass
* Joey Baron: drums, percussion, electronics
* Arto Lindsay: electric guitar and vocals
* Peter Scherer: keyboards and drum programming
* Julius Hemphill: alto saxophone
* Billy Drewes: alto saxophone
* Doug Wieselman: baritone saxophone
* Cyro Baptista: shaker
Трэклист:
1. "Before We Were Born/Some Song and Dance" - 6:51
2. "Freddy's Step" - 3:06
3. "Love Motel" - 6:49
4. "Pipsqueak" - 5:28
5. "Goodbye" - 1:43
6. "Hard Plains Drifter" - 13:24
7. "The Lone Ranger" - 7:34
8. "Steady Girl" - 2:10
All compositions by Bill Frisell
 
EAC log
Exact Audio Copy V0.99 prebeta 5 from 4. May 2009
Отчёт EAC об извлечении, выполненном 10. ноября 2009, 19:35
Bill Frisell / Before We Were Born
Дисковод: HL-DT-STDVDRAM GH20NS10 Adapter: 1 ID: 0
Режим чтения : Достоверность
Использование точного потока : Да
Отключение кэша аудио : Да
Использование указателей C2 : Нет
Коррекция смещения при чтении : 667
Способность читать области Lead-in и Lead-out : Нет
Заполнение пропущенных сэмплов тишиной : Да
Удаление блоков с тишиной в начале и конце : Нет
При вычислениях CRC использовались нулевые сэмплы : Да
Интерфейс : Установленный внешний ASPI-интерфейс
Выходной формат : Внутренние WAV-операции
Формат сэмплов : 44.100 Гц; 16 бит; стерео
TOC извлечённого CD
Трек | Старт | Длительность | Начальный сектор | Конечный сектор
---------------------------------------------------------------------
1 | 0:00.00 | 6:51.60 | 0 | 30884
2 | 6:51.60 | 3:05.48 | 30885 | 44807
3 | 9:57.33 | 6:48.32 | 44808 | 75439
4 | 16:45.65 | 5:27.43 | 75440 | 100007
5 | 22:13.33 | 1:41.37 | 100008 | 107619
6 | 23:54.70 | 13:22.68 | 107620 | 167837
7 | 37:17.63 | 7:33.45 | 167838 | 201857
8 | 44:51.33 | 2:08.70 | 201858 | 211527
Характеристики диапазона извлечения и сообщения об ошибках
Выбранный диапазон
Имя файла E:\Музыка\Записи\Новая папка\Bill Frisell - Before We Were Born.wav
Пиковый уровень 89.1 %
Качество диапазона 99.8 %
CRC копии 7EB3714B
Копирование... OK
Ошибок не произошло
Конец отчёта
Any questions -> support@pro-jazz.com. По всем вопросам пишите -> support@pro-jazz.com
16:28
197
Нет комментариев. Ваш будет первым!